Shakatak - In The Blue Zone (2019) Japan [FLAC|Lossless|image + .cue] <Smooth Jazz>

Ответить на тему
 
Автор Сообщение

Direktor_49 ®

Стаж: 2 года 9 месяцев

Сообщений: 17

Откуда: Калининград

Создавать темы 16-Июл-2019 12:27

[Цитировать]

Shakatak - In The Blue Zone (2019) Japan - Жанр: Smooth Jazz
Издание: Victor Entertainment - VICP 75166
Источник: blueshouse
Продолжительность: 01:04:57
Кодек: FLAC
Битрейт: Lossless
Тип рипа: image + .cue
Треклист:
01. To Be Loved
02. Making My Dreams Come True
03. Back To The Heart Of It
04. Ready To Take A Chance
05. High Town
06. The Blue Zone
07. Soul Paradise
08. Love Light
09. While The City Sleeps
10. Kyoto Dreaming
11. Forever Rio
12. Breathe
Bonus track:
13. Dance In Your Eyes
14. Slinky
Отчёт EAC:
Exact Audio Copy V1.3 from 2. September 2016
Отчёт EAC об извлечении, выполненном 11. июля 2019, 2:10
Shakatak / In The Blue Zone
Дисковод: _NEC    DVD_RW ND-4570A   Adapter: 1  ID: 2
Режим чтения                 : Достоверность
Использование точного потока : Да
Отключение кэша аудио        : Да
Использование указателей C2  : Нет
Коррекция смещения при чтении                     : 48
Способность читать области Lead-in и Lead-out     : Нет
Заполнение пропущенных сэмплов тишиной            : Да
Удаление блоков с тишиной в начале и конце        : Нет
При вычислениях CRC использовались нулевые сэмплы : Да
Интерфейс                                         : Встроенный Win32-интерфейс для Win NT/2000
Выходной формат          : Пользовательский кодировщик
Выбранный битрейт        : 768 kBit/s
Качество                 : Высокий
Добавление ID3-тега      : Нет
Утилита сжатия           : C:\Program Files\Exact Audio Copy\FLAC\FLAC.EXE
Дополнительные параметры : -6 -V -T "ARTIST=%artist%" -T "TITLE=%title%" -T "ALBUM=%albumtitle%" -T "DATE=%year%" -T "TRACKNUMBER=%tracknr%" -T "GENRE=%genre%" -T "COMMENT=%comment%" -T "BAND=%albuminterpret%" -T "ALBUMARTIST=%albuminterpret%" -T "COMPOSER=%composer%" %haslyrics%--tag-from-file=LYRICS="%lyricsfile%"%haslyrics% -T "DISCNUMBER=%cdnumber%" -T "TOTALDISCS=%totalcds%" -T "TOTALTRACKS=%numtracks%" %hascover%--picture="%coverfile%"%hascover% %source% -o %dest%
TOC извлечённого CD
     Трек |   Старт  | Длительность | Начальный сектор | Конечный сектор
    ---------------------------------------------------------------------
       1  |  0:00.00 |    5:06.58   |           0      |      23007
       2  |  5:06.58 |    4:47.06   |       23008      |      44538
       3  |  9:53.64 |    4:44.12   |       44539      |      65850
       4  | 14:38.01 |    5:08.18   |       65851      |      88968
       5  | 19:46.19 |    4:44.05   |       88969      |     110273
       6  | 24:30.24 |    4:23.00   |      110274      |     129998
       7  | 28:53.24 |    5:19.31   |      129999      |     153954
       8  | 34:12.55 |    3:34.51   |      153955      |     170055
       9  | 37:47.31 |    4:41.45   |      170056      |     191175
      10  | 42:29.01 |    4:57.53   |      191176      |     213503
      11  | 47:26.54 |    5:12.07   |      213504      |     236910
      12  | 52:38.61 |    3:06.24   |      236911      |     250884
      13  | 55:45.10 |    5:02.23   |      250885      |     273557
      14  | 60:47.33 |    4:09.45   |      273558      |     292277
Характеристики диапазона извлечения и сообщения об ошибках
Выбранный диапазон
     Имя файла C:\Users\Titanium\Desktop\Shakatak - In The Blue Zone  2019  64'59''\Shakatak - In The Blue Zone.wav
     Пиковый уровень 98.8 %
     Скорость извлечения 7.1 X
     Качество диапазона 99.9 %
     CRC теста D2417A2B
     CRC копии D2417A2B
     Копирование... OK
Ошибок не произошло
Конец отчёта
---- CUETools DB Plugin V2.1.6
[CTDB TOCID: te6JVHtDrOW.TQrhjDz8gIbloRY-] found
Submit result: te6JVHtDrOW.TQrhjDz8gIbloRY- has been confirmed
Track | CTDB Status
  1   | (6/6) Accurately ripped
  2   | (6/6) Accurately ripped
  3   | (6/6) Accurately ripped
  4   | (6/6) Accurately ripped
  5   | (6/6) Accurately ripped
  6   | (6/6) Accurately ripped
  7   | (6/6) Accurately ripped
  8   | (6/6) Accurately ripped
  9   | (6/6) Accurately ripped
10   | (6/6) Accurately ripped
11   | (6/6) Accurately ripped
12   | (6/6) Accurately ripped
13   | (6/6) Accurately ripped
14   | (6/6) Accurately ripped
==== Контрольная сумма отчёта 974310A5A9FCC63F30DF71EBD5EAC2E8315D1C4CB5B877B328CD6B1518BA0F2C ====
[Профиль] [ЛС]
Показать сообщения:    
Ответить на тему

Текущее время: 23-Авг 04:11

Часовой пояс: UTC + 4



Вы не можете начинать темы
Вы не можете отвечать на сообщения
Вы не можете редактировать свои сообщения
Вы не можете удалять свои сообщения
Вы не можете голосовать в опросах
Вы не можете прикреплять файлы к сообщениям
Вы не можете скачивать файлы