Половое воспитание (Все о сексе) / Sex Education (Сезон 1 , Серия 1--8 из 8) (Кейт Херрон, Бен Тэйлор) [2019,Драма, комедия,WEB-DLRip 1080p] [LostFilm+BTI Studios+TVShows+Eng]+[Subs Rus , ENG]

Ответить на тему
 
Автор Сообщение

Nikolai.Baranov ®

Стаж: 1 год 2 месяца

Сообщений: 95

Откуда: КРАСНОГОРСК

Создавать темы 13-Май-2019 20:44

[Цитировать]

-- --Половое воспитание (Все о сексе) / Sex Education Сезон 1 , Серия 1-8 из 8 - Полный Комплект-- --Год выпуска: 2019
Выпущено: США, Великобритания, Netflix, Eleven Films
Жанр:Драма, комедия
Продолжительность: 00:52:00
Сезон:1
Серия:1-8
Количество серий в сезоне:8--Озвучка #1: Профессиональный многоголосый - LostFilm - Русский
Озвучка #2: Профессиональный многоголосый - BTI Studios - Русский
Озвучка #3: Профессиональный многоголосый - TVShows - Русский
Озвучка #4: Профессиональный многоголосый -Английский - Оригинал
Субтитры: Russian , English, English SDH
--Релиз Без Рекламы - ВНИМАНИЕ! В сериале Сцены Сексуального Характера.
--MDB --Режиссеры:
Кейт Херрон, Бен Тэйлор--В ролях: Эйса Баттерфилд, Эмма Маккей, Джиллиан Андерсон, Нкути Гатуа, Шанель Кулар, Алистэр Петри, Коннор Суинделлс, Александр Вествуд, Кедар Уильямс-Стирлинг, Мими Кин, Таня Рейнольдс, Патриция Эллисон, Симон Эшли-- Сериал расскажет о неловком шестнадцатилетнем парне по имени Отис (Эйса Баттерфилд). Его мама (Джиллиан Андерсон) работает секс-терапевтом. Поэтому юноша, несмотря на свою необщительность с противоположным полом, неплохо разбирается в физиологии и психологии. Однажды, объединившись со своей одноклассницей - остроумной «плохой девочкой» Мэйв, Отис решает открыть в школе подпольные курсы сексуального воспитания, чтобы помочь одноклассникам справиться с переживаниями и сложностями переходного возраста. А заодно – подзаработать немного денег. Правда, довольно быстро юноша понимает, что ему самому не помешала бы профессиональная помощь в этих вопросах.-- --Качество :WEB-DLRip 1080p
Формат: MKV
Видео кодек: H264
Видео: 9091Кбит/сек,1920х960(2.000),в 25.000кадр/сек,AVC (High@L4.1)(CABAC/4 Ref Frames)--Аудио Кодек:AC3
Аудио #1:AC3, 640 Kbps, 48.0 KHz, 6 ch- LostFilm -Русский
Аудио #2:AC3, 384 Kbps, 48.0 KHz, 6 ch- BTI Studios -Русский
Аудио #3:AC3, 384 Kbps, 48.0 KHz, 6 ch- TVShows -Русский
Аудио #4: AC3, 640 Kbps, 48.0 KHz,6 ch - - English - Оригинал--
Доп. информация:
Звуковая дорожка сделана путем наложения чистого голоса озвучивателей на центральный канал оригинальной дорожки. Качество идентично звуковой дорожке.
--
MediaInfo сезона
Общее
Уникальный идентификатор : 311084483887724090541262316598665637418 (0xEA08B138F54614D0FFA2008970BB6E2A)
Полное имя : C:\Users\Russian Patriot\Downloads\Половое воспитание (Все о сексе) - Sex Education\Sex_Education_2019_S01_Н264_DD5.1_N.B_HD_1080_3xRus_Eng\Sex_Education_S01E01_Н264_DD5.1_N.B_HD_1080_3xRus_Eng.mkv
Формат : Matroska
Версия формата : Version 4
Размер файла : 4,02 Гбайт
Продолжительность : 51 м. 42 с.
Общий поток : 11,1 Мбит/сек
Название фильма : Sex Education 2019 S01Е01 @ Nikolai.Baranov & PIRATIYA
Дата кодирования : UTC 2019-05-13 07:13:28
Программа кодирования : mkvmerge v33.1.0 ('Primrose') 64-bit
Библиотека кодирования : libebml v1.3.7 + libmatroska v1.5.0
Видео
Идентификатор : 1
Формат : AVC
Формат/Информация : Advanced Video Codec
Профиль формата : High@L4.1
Настройки формата : CABAC / 4 Ref Frames
Параметр CABAC формата : Да
Параметр RefFrames формата : 4 кадра
Идентификатор кодека : V_MPEG4/ISO/AVC
Продолжительность : 51 м. 42 с.
Битрейт : 9091 Кбит/сек
Ширина : 1920 пикселей
Высота : 960 пикселей
Соотношение сторон : 2,000
Режим частоты кадров : Постоянный
Частота кадров : 25,000 кадров/сек
Цветовое пространство : YUV
Субдискретизация насыщенности : 4:2:0
Битовая глубина : 8 бит
Тип развёртки : Прогрессивная
Бит/(Пиксели*Кадры) : 0.197
Размер потока : 3,28 Гбайт (82%)
Заголовок : Sex_Education_S01E01_Н264_DD5.1_N.B_HD_1080_3xRus_Eng
Библиотека кодирования : x264 core 157 r2935+3 (master: 545de2f / tmod: 0f48dd4) [X86_64]
Настройки программы : cabac=1 / ref=4 / deblock=1:-3:-3 / analyse=0x3:0x133 / me=umh / subme=11 / psy=1 / psy_rd=1.05:0.15 / mixed_ref=1 / me_range=48 / chroma_me=1 / trellis=2 / 8x8dct=1 / cqm=0 / deadzone=6,6 / fast_pskip=0 / chroma_qp_offset=-3 / threads=30 / lookahead_threads=7 / sliced_threads=0 / nr=0 / decimate=0 / interlaced=0 / bluray_compat=0 / constrained_intra=0 / bframes=10 / b_pyramid=2 / b_adapt=2 / b_bias=0 / direct=3 / weightb=1 / open_gop=0 / weightp=2 / keyint=250 / keyint_min=25 / scenecut=40 / intra_refresh=0 / rc_lookahead=60 / rc=crf / mbtree=0 / crf=17.0 / qcomp=0.70 / qpmin=0 / qpmax=69 / qpstep=4 / vbv_maxrate=62500 / vbv_bufsize=78125 / crf_max=0.0 / nal_hrd=none / filler=0 / ip_ratio=1.25 / pb_ratio=1.20 / aq=3:0.70
Язык : Russian
Default : Да
Forced : Нет
Аудио #1
Идентификатор : 6
Формат : AC-3
Формат/Информация : Audio Coding 3
Коммерческое название : Dolby Digital
Идентификатор кодека : A_AC3
Продолжительность : 51 м. 40 с.
Вид битрейта : Постоянный
Битрейт : 640 Кбит/сек
Каналы : 6 каналов
ChannelLayout : L R C LFE Ls Rs
Частота : 48,0 КГц
Частота кадров : 31,250 кадров/сек (1536 SPF)
Битовая глубина : 16 бит
Метод сжатия : С потерями
Размер потока : 237 Мбайт (6%)
Заголовок : MVO LostFilm @DD5.1 AC3, 640 Kbps, 48.0 KHz, 6 ch
Язык : Russian
ServiceKind/String : Complete Main
Default : Да
Forced : Нет
Аудио #2
Идентификатор : 7
Формат : AC-3
Формат/Информация : Audio Coding 3
Коммерческое название : Dolby Digital
Идентификатор кодека : A_AC3
Продолжительность : 51 м. 42 с.
Вид битрейта : Постоянный
Битрейт : 384 Кбит/сек
Каналы : 6 каналов
ChannelLayout : L R C LFE Ls Rs
Частота : 48,0 КГц
Частота кадров : 31,250 кадров/сек (1536 SPF)
Битовая глубина : 16 бит
Метод сжатия : С потерями
Размер потока : 142 Мбайт (3%)
Заголовок : MVO TVShows @DD5.1 AC3, 384 Kbps, 48.0 KHz, 6 ch
Язык : Russian
ServiceKind/String : Complete Main
Default : Нет
Forced : Нет
Аудио #3
Идентификатор : 8
Формат : AC-3
Формат/Информация : Audio Coding 3
Коммерческое название : Dolby Digital
Идентификатор кодека : A_AC3
Продолжительность : 51 м. 42 с.
Вид битрейта : Постоянный
Битрейт : 384 Кбит/сек
Каналы : 6 каналов
ChannelLayout : L R C LFE Ls Rs
Частота : 48,0 КГц
Частота кадров : 31,250 кадров/сек (1536 SPF)
Битовая глубина : 16 бит
Метод сжатия : С потерями
Размер потока : 142 Мбайт (3%)
Заголовок : MVO BTI Studios @DD5.1 AC3, 384 Kbps, 48.0 KHz, 6 ch
Язык : Russian
ServiceKind/String : Complete Main
Default : Нет
Forced : Нет
Аудио #4
Идентификатор : 9
Формат : AC-3
Формат/Информация : Audio Coding 3
Коммерческое название : Dolby Digital
Идентификатор кодека : A_AC3
Продолжительность : 51 м. 42 с.
Вид битрейта : Постоянный
Битрейт : 640 Кбит/сек
Каналы : 6 каналов
ChannelLayout : L R C LFE Ls Rs
Частота : 48,0 КГц
Частота кадров : 31,250 кадров/сек (1536 SPF)
Битовая глубина : 16 бит
Метод сжатия : С потерями
Размер потока : 237 Мбайт (6%)
Заголовок : Original@DD5.1 AC3 ,640 Kbps, 48.0 KHz, 6 ch
Язык : English
ServiceKind/String : Complete Main
Default : Нет
Forced : Нет
Текст #1
Идентификатор : 2
Формат : UTF-8
Идентификатор кодека : S_TEXT/UTF8
Идентификатор кодека/Информация : UTF-8 Plain Text
Продолжительность : 41 м. 23 с.
Битрейт : 1 бит/сек
ElementCount : 13
Размер потока : 555 байт (0%)
Заголовок : Russian-Forced
Язык : Russian
Default : Да
Forced : Нет
Текст #2
Идентификатор : 3
Формат : UTF-8
Идентификатор кодека : S_TEXT/UTF8
Идентификатор кодека/Информация : UTF-8 Plain Text
Продолжительность : 49 м. 50 с.
Битрейт : 85 бит/сек
ElementCount : 740
Размер потока : 31,4 Кбайт (0%)
Заголовок : Russian
Язык : Russian
Default : Нет
Forced : Нет
Текст #3
Идентификатор : 4
Формат : UTF-8
Идентификатор кодека : S_TEXT/UTF8
Идентификатор кодека/Информация : UTF-8 Plain Text
Продолжительность : 51 м. 25 с.
Битрейт : 75 бит/сек
ElementCount : 914
Размер потока : 28,6 Кбайт (0%)
Заголовок : Original - SDH
Язык : English
Default : Нет
Forced : Нет
Текст #4
Идентификатор : 5
Формат : UTF-8
Идентификатор кодека : S_TEXT/UTF8
Идентификатор кодека/Информация : UTF-8 Plain Text
Продолжительность : 50 м. 6 с.
Битрейт : 61 бит/сек
ElementCount : 733
Размер потока : 22,5 Кбайт (0%)
Заголовок : Original
Язык : English
Default : Нет
Forced : Нет
Меню
00:00:00.000 : :Глава 01 / :Глава 01 / :Глава 01 / :Глава 01 / :Глава 01 / :Глава 01 / :Глава 01 / :Глава 01 / :Глава 01
--
Скриншоты
-- --
Как закачать отдельный файл
1. Открыть торрент
2. Снять галки с тех файлов торрента, которые мы не хотим закачивать. Оставляем только на нужных нам файлах (файле).
3. Нажать О.К.
В клиенте utorrent
Инструкция
1) Открыть торрент

2) Снять галки с тех файлов торрента, которые мы не хотим закачивать:
* либо вручную, снимая с каждого файла галку( скрин №1)
* либо, нажав кнопку "Снять метки (Select None)", сняв сразу со всех файлов(скрин №2)
№1

№2

Оставляем только на нужных нам файлах (файле).

3)Нажать О.К
-- -- --Внимание!!! 03.06. 2019. РАЗДАЧА ОБНОВЛЕНА. ДОБАВЛЕНА - 7- 8-СЕРИЯ. ФИНАЛ СЕЗОНА. ОБНОВИТЕ ТОРЕНТ ФАЙЛ. ПРИЯТНОГО ПРОСМОТРА . Поблагодарить:
ЯД: 410017546713876
--Релиз от: Nikolai.Baranov & PIRATIYA -- -- -- --Время раздачи : 24/7---


Последний раз редактировалось: Nikolai.Baranov (2019-06-03 10:19), всего редактировалось 3 раз(а)
[Профиль] [ЛС]

Nuromafy

Стаж: 2 месяца 6 дней

Сообщений: 2

Создавать темы 17-Май-2019 12:33 (спустя 3 дня)

[Цитировать]

Отличный молодёжный сериальчик
[Профиль] [ЛС]
Показать сообщения:    
Ответить на тему

Текущее время: 24-Июл 10:31

Часовой пояс: UTC + 4



Вы не можете начинать темы
Вы не можете отвечать на сообщения
Вы не можете редактировать свои сообщения
Вы не можете удалять свои сообщения
Вы не можете голосовать в опросах
Вы не можете прикреплять файлы к сообщениям
Вы не можете скачивать файлы