(Big Band) The Don Lusher Big Band — Pays Tribute To The Great Bands (4 CD) — 1989, FLAC (image+.cue) lossless

Ответить на тему
 
Автор Сообщение

Direktor_49 ®

Стаж: 2 года 8 месяцев

Сообщений: 15

Откуда: Калининград

Создавать темы 28-Апр-2019 15:17

[Цитировать]

The Don Lusher Big Band — Pays Tribute To The Great Bands (4 CD)
Жанр: Big Band
Год издания дисков: 1989
Лейбл: Horation Nelson
Аудио кодек: FLAC (*.flac)
Тип рипа: image+.cue
Битрейт аудио: lossless
Продолжительность: 2:40:23
Риппер: PCWhizzkid
Сканы есть
Don Lusher
Don Lusher was born in Peterborough, Northamptonshire in November 1923, and started to learn the trombone when he was just six. He followed the family tradition and joined the Peterborough Salvation Army Band, playing alongside his father and grandfather. He remained a figure in the brass-band field for the rest of his life. During the Second World War he served in the Royal Artillery, where he took part in the D-Day landings.
He began his professional career as a sidesman with Joe Daniels and His Hot Shots, followed by 18 months spent on the lead trombone chair with Lou Praeger at Hammersmith Palais. A move into high society with Maurice Winnick's Orchestra at Ciro's Club lasted a mere four weeks but the big break was just around the corner. A chance to join the Squadronaires, sitting in the trombone section alongside George Chisholm and the experience gained over the next three years was to prove invaluable. Don was the first member of the Squadronaires not to have served in the Royal Air Force.
Theatre work with Jack Parnell's newly formed band at the Prince of Wales Theatre came next but when Jack Parnell decided to take his band on the road, Don, wanting to stay in town, accepted an offer to join Geraldo. This meant regular broadcasts and it wasn't long before Geraldo's arch rival, Ted Heath, was looking to poach the young trombonist.
In 1953 he joined Ted Heath to lead the trombone section and he became one of it's most heavily featured soloists. He was a virtuoso performer and could play anything. In the nine years spent with Heath, Don Lusher learnt the art of leading a successful band.
Lusher's international fame was fortified by the Heath band's five tours of the US and he became one of the most sought after session players in the country, working with such stars as Frank Sinatra, Bing Crosby, Barbra Streisand, Julie Andrews, Henry Mancini, Michele Legrand and Nelson Riddle who said, "Don Lusher is a consummate craftsman. He approaches the trombone with the same thoughtful attention to detail I remember in Tommy Dorsey".
The Don Lusher Big Band began in 1980 and toured internationally with various musical directors including Robert Farnon, Nelson Riddle and Henry Mancini. Following the death of Ted Heath various people took over the direction of the band but eventually came under Lusher's direction and The Ted Heath Tribute Orchestra continued under his leadership throughout the Eighties and Nineties, playing its final concert in December 2000. His ran his own big band at the same time and he used a lot of ex-Heath sidemen including Roy Willox, Kenny Baker, Tommy Whittle, Henry Mackenzie and others.He was awarded the OBE in 2003 and died in July 2006. The Don Lusher big Band played it's final concert in 2007.
Volume One
Номер по каталогу: CD SIV 110
Продолжительность: 40:14
Треклист:
01. Peanut Vendor (3:36)
02. Take The 'A' Train (3:16)
03. I'll, Never Smile Again (3:11)
04. Don't Be That Way (3:39)
05. I've Got My Love To Keep Me Warm (2:53)
06. Kid From Red Bank (2:33)
07. Opus One (3:09)
08. Adios (3:24)
09. I Get A Kick Out Of You (2:34)
10. Early Autumn (3:55)
11. Caravan (4:22)
12. Two O'Clock Jump (3:42)
Лог создания рипа
Exact Audio Copy V1.0 beta 1 from 15. November 2010
EAC extraction logfile from 27. April 2011, 14:21
The Don Lusher Big Band / Pays Tribute to The Great Bands Volume 1
Used drive : HL-DT-STDVDRAM GH22NS40 Adapter: 1 ID: 0
Read mode : Secure
Utilize accurate stream : Yes
Defeat audio cache : Yes
Make use of C2 pointers : No
Read offset correction : 667
Overread into Lead-In and Lead-Out : No
Fill up missing offset samples with silence : Yes
Delete leading and trailing silent blocks : No
Null samples used in CRC calculations : Yes
Used interface : Native Win32 interface for Win NT & 2000
Used output format : User Defined Encoder
Selected bitrate : 768 kBit/s
Quality : High
Add ID3 tag : No
Command line compressor : C:\Program Files (x86)\Exact Audio Copy\FLAC\FLAC.EXE
Additional command line options : -6 -V -T "ARTIST=%a" -T "TITLE=%t" -T "ALBUM=%g" -T "DATE=%y" -T "TRACKNUMBER=%n" -T "GENRE=%m" -T "COMMENT=%e" %j--picture="%i"%j %s -o %d
TOC of the extracted CD
Track | Start | Length | Start sector | End sector
---------------------------------------------------------
1 | 0:00.00 | 3:35.70 | 0 | 16194
2 | 3:35.70 | 3:15.70 | 16195 | 30889
3 | 6:51.65 | 3:10.60 | 30890 | 45199
4 | 10:02.50 | 3:39.00 | 45200 | 61624
5 | 13:41.50 | 2:53.00 | 61625 | 74599
6 | 16:34.50 | 2:33.12 | 74600 | 86086
7 | 19:07.62 | 3:08.48 | 86087 | 100234
8 | 22:16.35 | 3:24.35 | 100235 | 115569
9 | 25:40.70 | 2:34.07 | 115570 | 127126
10 | 28:15.02 | 3:54.60 | 127127 | 144736
11 | 32:09.62 | 4:22.30 | 144737 | 164416
12 | 36:32.17 | 3:41.58 | 164417 | 181049
Range status and errors
Selected range
Filename T:\The Don Lusher Big Band - Pays Tribute to The Great Bands Volume 1.wav
Peak level 100.0 %
Extraction speed 0.1 X
Range quality 100.0 %
Test CRC EEE96242
Copy CRC EEE96242
Copy OK
No errors occurred
AccurateRip summary
Track 1 not present in database
Track 2 not present in database
Track 3 not present in database
Track 4 not present in database
Track 5 not present in database
Track 6 not present in database
Track 7 not present in database
Track 8 not present in database
Track 9 not present in database
Track 10 not present in database
Track 11 not present in database
Track 12 not present in database
None of the tracks are present in the AccurateRip database
End of status report
==== Log checksum 0BB43DA216DF71349D87749BCFCC2344D8CF0D7DE2096D16DF58FB1507104E82 ====
Содержание индексной карты (.CUE)
REM DATE 1989
REM GENRE "Big Band"
REM DISCID A2096E0C
REM COMMENT "ExactAudioCopy v1.0b1"
PERFORMER "The Don Lusher Big Band"
TITLE "Plays Tribute to The Great Bands Volume 1"
FILE "The Don Lusher Big Band - Pays Tribute to The Great Bands Volume 1.flac" WAVE
TRACK 01 AUDIO
TITLE "Peanut Vendor"
PERFORMER "The Don Lusher Big Band"
INDEX 01 00:00:00
TRACK 02 AUDIO
TITLE "Take The 'A' Train"
PERFORMER "The Don Lusher Big Band"
INDEX 00 03:34:05
INDEX 01 03:35:70
TRACK 03 AUDIO
TITLE "I'll, Never Smile Again"
PERFORMER "The Don Lusher Big Band"
INDEX 00 06:49:72
INDEX 01 06:51:65
TRACK 04 AUDIO
TITLE "Don't Be That Way"
PERFORMER "The Don Lusher Big Band"
INDEX 00 10:01:07
INDEX 01 10:02:50
TRACK 05 AUDIO
TITLE "I've Got My Love To Keep Me Warm"
PERFORMER "The Don Lusher Big Band"
INDEX 00 13:39:72
INDEX 01 13:41:50
TRACK 06 AUDIO
TITLE "Kid From Red Bank"
PERFORMER "The Don Lusher Big Band"
INDEX 00 16:33:15
INDEX 01 16:34:50
TRACK 07 AUDIO
TITLE "Opus One"
PERFORMER "The Don Lusher Big Band"
INDEX 00 19:06:02
INDEX 01 19:07:62
TRACK 08 AUDIO
TITLE "Adios"
PERFORMER "The Don Lusher Big Band"
INDEX 00 22:14:67
INDEX 01 22:16:35
TRACK 09 AUDIO
TITLE "I Get A Kick Out Of You"
PERFORMER "The Don Lusher Big Band"
INDEX 00 25:39:17
INDEX 01 25:40:70
TRACK 10 AUDIO
TITLE "Early Autumn"
PERFORMER "The Don Lusher Big Band"
INDEX 00 28:13:40
INDEX 01 28:15:02
TRACK 11 AUDIO
TITLE "Caravan"
PERFORMER "The Don Lusher Big Band"
INDEX 00 32:08:45
INDEX 01 32:09:62
TRACK 12 AUDIO
TITLE "Two O'Clock Jump"
PERFORMER "The Don Lusher Big Band"
INDEX 00 36:30:37
INDEX 01 36:32:17
Состав
Kenny Baker, Tony Fisher, Derek Healey, Derek Watkins (tp),
Cliff Hardie, Bobby Lamb, Colin Sheen, Bill Geldard, Don Lusher (tb),
Ronnie Chamberlain (as, ss), Ray Swinfield (as), Tommy Whittle (ts), Henry Mackenzie (ts, cl), Eddie Mordue (bars),
Norman Stenfalt (p), Lennie Bush (b), Terry Jenkins (d)
Volume Two
Номер по каталогу: CD SIV 1114
Продолжительность: 38:54
Треклист:
01. Trumpet Blues And Cantabile (2:53)
02. Pennsylvania 6-5000 (3:14)
03. That Lovely Weekend (1:55)
04. That's Right (3:17)
05. West Lake (6:06)
06. D L Blues (2:17)
07. Sing Sing Sinf (2:56)
08. April In Paris (3:21)
09. I'm Getting Sentimental Over You (3:00)
10. Don't Get Around Much Anymore (2:47)
11. Concerto To End All Concertos (7:08)
Лог создания рипа
Exact Audio Copy V1.0 beta 1 from 15. November 2010
EAC extraction logfile from 27. April 2011, 15:43
The Don Lusher Big Band / Pays Tribute to The Great Bands Volume 2
Used drive : HL-DT-STDVDRAM GH22NS40 Adapter: 2 ID: 0
Read mode : Secure
Utilize accurate stream : Yes
Defeat audio cache : Yes
Make use of C2 pointers : No
Read offset correction : 667
Overread into Lead-In and Lead-Out : No
Fill up missing offset samples with silence : Yes
Delete leading and trailing silent blocks : No
Null samples used in CRC calculations : Yes
Used interface : Native Win32 interface for Win NT & 2000
Used output format : User Defined Encoder
Selected bitrate : 768 kBit/s
Quality : High
Add ID3 tag : No
Command line compressor : C:\Program Files (x86)\Exact Audio Copy\FLAC\FLAC.EXE
Additional command line options : -6 -V -T "ARTIST=%a" -T "TITLE=%t" -T "ALBUM=%g" -T "DATE=%y" -T "TRACKNUMBER=%n" -T "GENRE=%m" -T "COMMENT=%e" %j--picture="%i"%j %s -o %d
TOC of the extracted CD
Track | Start | Length | Start sector | End sector
---------------------------------------------------------
1 | 0:00.00 | 2:53.37 | 0 | 13011
2 | 2:53.37 | 3:14.03 | 13012 | 27564
3 | 6:07.40 | 1:54.57 | 27565 | 36171
4 | 8:02.22 | 3:16.38 | 36172 | 50909
5 | 11:18.60 | 6:06.12 | 50910 | 78371
6 | 17:24.72 | 2:17.03 | 78372 | 88649
7 | 19:42.00 | 2:56.25 | 88650 | 101874
8 | 22:38.25 | 3:20.52 | 101875 | 116926
9 | 25:59.02 | 2:59.40 | 116927 | 130391
10 | 28:58.42 | 2:47.23 | 130392 | 142939
11 | 31:45.65 | 7:08.35 | 142940 | 175074
Range status and errors
Selected range
Filename T:\The Don Lusher Big Band - Pays Tribute to The Great Bands Volume 2.wav
Peak level 100.0 %
Extraction speed 0.1 X
Range quality 100.0 %
Test CRC 5377B450
Copy CRC 5377B450
Copy OK
No errors occurred
AccurateRip summary
Track 1 not present in database
Track 2 not present in database
Track 3 not present in database
Track 4 not present in database
Track 5 not present in database
Track 6 not present in database
Track 7 not present in database
Track 8 not present in database
Track 9 not present in database
Track 10 not present in database
Track 11 not present in database
None of the tracks are present in the AccurateRip database
End of status report
==== Log checksum 33131536543C1ED13AE6BD193F53ED306030D989176052DBEFC50D769C92FB74 ====
Содержание индексной карты (.CUE)
REM DATE 1989
REM GENRE "Big Band"
REM DISCID 8C091E0B
REM COMMENT "ExactAudioCopy v1.0b1"
PERFORMER "The Don Lusher Big Band"
TITLE "Plays Tribute to The Great Bands Volume 2"
FILE "The Don Lusher Big Band - Pays Tribute to The Great Bands Volume 2.flac" WAVE
TRACK 01 AUDIO
TITLE "Trumpet Blues And Cantabile"
PERFORMER "The Don Lusher Big Band"
INDEX 01 00:00:00
TRACK 02 AUDIO
TITLE "Pennsylvania 6-5000"
PERFORMER "The Don Lusher Big Band"
INDEX 00 02:51:11
INDEX 01 02:53:37
TRACK 03 AUDIO
TITLE "That Lovely Weekend"
PERFORMER "The Don Lusher Big Band"
INDEX 00 06:05:15
INDEX 01 06:07:40
TRACK 04 AUDIO
TITLE "That's Right"
PERFORMER "The Don Lusher Big Band"
INDEX 00 07:59:72
INDEX 01 08:02:22
TRACK 05 AUDIO
TITLE "West Lake"
PERFORMER "The Don Lusher Big Band"
INDEX 00 11:16:35
INDEX 01 11:18:60
TRACK 06 AUDIO
TITLE "D L Blues"
PERFORMER "The Don Lusher Big Band"
INDEX 00 17:21:47
INDEX 01 17:24:72
TRACK 07 AUDIO
TITLE "Sing Sing Sinf"
PERFORMER "The Don Lusher Big Band"
INDEX 00 19:39:50
INDEX 01 19:42:00
TRACK 08 AUDIO
TITLE "April In Paris"
PERFORMER "The Don Lusher Big Band"
INDEX 00 22:35:00
INDEX 01 22:38:25
TRACK 09 AUDIO
TITLE "I'm Getting Sentimental Over You"
PERFORMER "The Don Lusher Big Band"
INDEX 00 25:55:52
INDEX 01 25:59:02
TRACK 10 AUDIO
TITLE "Don't Get Around Much Anymore"
PERFORMER "The Don Lusher Big Band"
INDEX 00 28:56:17
INDEX 01 28:58:42
TRACK 11 AUDIO
TITLE "Concerto To End All Concertos"
PERFORMER "The Don Lusher Big Band"
INDEX 00 31:43:40
INDEX 01 31:45:65
Состав
Derek Watkins, Kenny Baker, Tony Fisher, Derek Healey (tp),
Bill Geldard, Chris Dean, Cliff Hardie, Colin Sheen, Don Lusher (tb),
Roy Willox, Ray Swinfield (as), Tommy Whittle (ts), Henry Mackenzie (ts, cl), Eddie Mordue (bars),
Ronnie Price (p), Paul Morgan (b), Terry Jenkins (d)
Volume Three
Номер по каталогу: CD SIV 1125
Продолжительность: 40:07
Треклист:
01. Love For Sale (4:35)
02. At Last (2:17)
03. Carnival (3:20)
04. Cute (3:16)
05. Benny Rides Again (4:13)
06. Woodchoppers Ball (3:08)
07. Song Of India (3:02)
08. Tea For Two (Cha Cha) (2:53)
09. Pinetops Boogie Woogie (3:18)
10. Moonlight Serenade (3:08)
11. Don's Theme (3:57)
12. Intermission Riff (3:00)
Лог создания рипа
Exact Audio Copy V1.0 beta 1 from 15. November 2010
EAC extraction logfile from 27. April 2011, 16:53
The Don Lusher Big Band / Pays Tribute to The Great Bands Volume 3
Used drive : HL-DT-STDVDRAM GH22NS40 Adapter: 3 ID: 0
Read mode : Secure
Utilize accurate stream : Yes
Defeat audio cache : Yes
Make use of C2 pointers : No
Read offset correction : 667
Overread into Lead-In and Lead-Out : No
Fill up missing offset samples with silence : Yes
Delete leading and trailing silent blocks : No
Null samples used in CRC calculations : Yes
Used interface : Native Win32 interface for Win NT & 2000
Used output format : User Defined Encoder
Selected bitrate : 768 kBit/s
Quality : High
Add ID3 tag : No
Command line compressor : C:\Program Files (x86)\Exact Audio Copy\FLAC\FLAC.EXE
Additional command line options : -6 -V -T "ARTIST=%a" -T "TITLE=%t" -T "ALBUM=%g" -T "DATE=%y" -T "TRACKNUMBER=%n" -T "GENRE=%m" -T "COMMENT=%e" %j--picture="%i"%j %s -o %d
TOC of the extracted CD
Track | Start | Length | Start sector | End sector
---------------------------------------------------------
1 | 0:00.33 | 4:34.40 | 33 | 20622
2 | 4:34.73 | 2:17.37 | 20623 | 30934
3 | 6:52.35 | 3:20.25 | 30935 | 45959
4 | 10:12.60 | 3:15.70 | 45960 | 60654
5 | 13:28.55 | 4:12.65 | 60655 | 79619
6 | 17:41.45 | 3:07.50 | 79620 | 93694
7 | 20:49.20 | 3:02.18 | 93695 | 107362
8 | 23:51.38 | 2:53.17 | 107363 | 120354
9 | 26:44.55 | 3:17.48 | 120355 | 135177
10 | 30:02.28 | 3:08.20 | 135178 | 149297
11 | 33:10.48 | 3:56.52 | 149298 | 167049
12 | 37:07.25 | 3:00.08 | 167050 | 180557
Range status and errors
Selected range
Filename T:\The Don Lusher Big Band - Pays tribute to The Great Bands, Vol. Three.wav
Peak level 88.6 %
Extraction speed 0.1 X
Range quality 100.0 %
Test CRC 28CFC7FE
Copy CRC 28CFC7FE
Copy OK
No errors occurred
AccurateRip summary
Track 1 not present in database
Track 2 not present in database
Track 3 not present in database
Track 4 not present in database
Track 5 not present in database
Track 6 not present in database
Track 7 not present in database
Track 8 not present in database
Track 9 not present in database
Track 10 not present in database
Track 11 not present in database
Track 12 not present in database
None of the tracks are present in the AccurateRip database
End of status report
==== Log checksum AAB0A09B4B7DB306915AD02428767455EEEEA75C92DD42DEEB25BB02DCB4964C ====
Содержание индексной карты (.CUE)
REM DATE 1989
REM GENRE "Big Band"
REM DISCID 8A09670C
REM COMMENT "ExactAudioCopy v1.0b1"
PERFORMER "The Don Lusher Big Band"
TITLE "Plays Tribute To The Great Bands, Volume 3"
FILE "The Don Lusher Big Band - Pays tribute to The Great Bands, Vol. Three.flac" WAVE
TRACK 01 AUDIO
TITLE "Love For Sale"
PERFORMER "The Don Lusher Big Band"
INDEX 00 00:00:00
INDEX 01 00:00:33
TRACK 02 AUDIO
TITLE "At Last"
PERFORMER "The Don Lusher Big Band"
INDEX 00 04:32:13
INDEX 01 04:34:73
TRACK 03 AUDIO
TITLE "Carnival"
PERFORMER "The Don Lusher Big Band"
INDEX 00 06:49:53
INDEX 01 06:52:35
TRACK 04 AUDIO
TITLE "Cute"
PERFORMER "The Don Lusher Big Band"
INDEX 00 10:10:05
INDEX 01 10:12:60
TRACK 05 AUDIO
TITLE "Benny Rides Again"
PERFORMER "The Don Lusher Big Band"
INDEX 00 13:25:70
INDEX 01 13:28:55
TRACK 06 AUDIO
TITLE "Woodchoppers Ball"
PERFORMER "The Don Lusher Big Band"
INDEX 00 17:38:65
INDEX 01 17:41:45
TRACK 07 AUDIO
TITLE "Song Of India"
PERFORMER "The Don Lusher Big Band"
INDEX 00 20:46:40
INDEX 01 20:49:20
TRACK 08 AUDIO
TITLE "Tea For Two (Cha Cha)"
PERFORMER "The Don Lusher Big Band"
INDEX 00 23:48:58
INDEX 01 23:51:38
TRACK 09 AUDIO
TITLE "Pinetops Boogie Woogie"
PERFORMER "The Don Lusher Big Band"
INDEX 00 26:41:73
INDEX 01 26:44:55
TRACK 10 AUDIO
TITLE "Moonlight Serenade"
PERFORMER "The Don Lusher Big Band"
INDEX 00 29:59:45
INDEX 01 30:02:28
TRACK 11 AUDIO
TITLE "Don's Theme"
PERFORMER "The Don Lusher Big Band"
INDEX 00 33:07:68
INDEX 01 33:10:48
TRACK 12 AUDIO
TITLE "Intermission Riff"
PERFORMER "The Don Lusher Big Band"
INDEX 00 37:04:43
INDEX 01 37:07:25
Состав
Derek Watkins, Kenny Baker, Tony Fisher, (probably Derek Healey) (tp),
Don Lusher, Chris Dean, (probably Bill Geldard, Cliff Hardie, Colin Sheen) (tb),
Roy Willox, Ray Swinfield (as), Tommy Whittle (ts), Henry Mackenzie (ts, cl), (probably Eddie Mordue) (bars),
Ronnie Price (p), Paul Morgan (b), Terry Jenkins (d)
Volume Four
Номер по каталогу: CD SIV 1133
Продолжительность: 41:08
Треклист:
01. Mr Anthony's Boogie (2:56)
02. Sunny Side Of The Street (2:59)
03. Continental (3:35)
04. Isafahan (4:46)
05. Mission To Moscow (3:09)
06. Night In Tunisia (3:18)
07. Apple Honey (2:35)
08. Wave (3:11)
09. Shiny Stockings (4:05)
10. Liebestraum (3:05)
11. String Of Pearls (3:19)
12. 1 O'Clock Jump (4:10)
Лог создания рипа
Exact Audio Copy V1.0 beta 1 from 15. November 2010
EAC extraction logfile from 27. April 2011, 17:05
The Don Lusher Big Band / Pays Tribute to The Great Bands Volume 4
Used drive : HL-DT-STDVDRAM GH22NS40 Adapter: 4 ID: 0
Read mode : Secure
Utilize accurate stream : Yes
Defeat audio cache : Yes
Make use of C2 pointers : No
Read offset correction : 667
Overread into Lead-In and Lead-Out : No
Fill up missing offset samples with silence : Yes
Delete leading and trailing silent blocks : No
Null samples used in CRC calculations : Yes
Used interface : Native Win32 interface for Win NT & 2000
Used output format : User Defined Encoder
Selected bitrate : 768 kBit/s
Quality : High
Add ID3 tag : No
Command line compressor : C:\Program Files (x86)\Exact Audio Copy\FLAC\FLAC.EXE
Additional command line options : -6 -V -T "ARTIST=%a" -T "TITLE=%t" -T "ALBUM=%g" -T "DATE=%y" -T "TRACKNUMBER=%n" -T "GENRE=%m" -T "COMMENT=%e" %j--picture="%i"%j %s -o %d
TOC of the extracted CD
Track | Start | Length | Start sector | End sector
---------------------------------------------------------
1 | 0:00.00 | 2:56.25 | 0 | 13224
2 | 2:56.25 | 2:59.25 | 13225 | 26674
3 | 5:55.50 | 3:35.32 | 26675 | 42831
4 | 9:31.07 | 4:45.50 | 42832 | 64256
5 | 14:16.57 | 3:08.50 | 64257 | 78406
6 | 17:25.32 | 3:18.00 | 78407 | 93256
7 | 20:43.32 | 2:34.43 | 93257 | 104849
8 | 23:18.00 | 3:10.40 | 104850 | 119139
9 | 26:28.40 | 4:05.20 | 119140 | 137534
10 | 30:33.60 | 3:04.60 | 137535 | 151394
11 | 33:38.45 | 3:18.72 | 151395 | 166316
12 | 36:57.42 | 4:10.03 | 166317 | 185069
Range status and errors
Selected range
Filename T:\The Don Lusher Big Band - Pays Tribute to The Great Bands Volume 4\The Don Lusher Big Band - Pays Tribute to The Great Bands Volume 4.wav
Peak level 100.0 %
Extraction speed 0.1 X
Range quality 100.0 %
Test CRC 1464C044
Copy CRC 1464C044
Copy OK
No errors occurred
AccurateRip summary
Track 1 not present in database
Track 2 not present in database
Track 3 not present in database
Track 4 not present in database
Track 5 not present in database
Track 6 not present in database
Track 7 not present in database
Track 8 not present in database
Track 9 not present in database
Track 10 not present in database
Track 11 not present in database
Track 12 not present in database
None of the tracks are present in the AccurateRip database
End of status report
==== Log checksum B9D1848D1B22B95324A22E1D01B217F0864E976A9FAB8A95F2E24E9465684A9F ====
Содержание индексной карты (.CUE)
REM DATE 1989
REM GENRE "Big band"
REM DISCID 9409A30C
REM COMMENT "ExactAudioCopy v1.0b1"
PERFORMER "The Don Lusher Big Band"
TITLE "Pays Tribute To The Great Bands, Volume 4"
FILE "The Don Lusher Big Band - Pays Tribute to The Great Bands Volume 4.flac" WAVE
TRACK 01 AUDIO
TITLE "Mr Anthony's Boogie"
PERFORMER "The Don Lusher Big Band"
INDEX 01 00:00:00
TRACK 02 AUDIO
TITLE "Sunny Side Of The Street"
PERFORMER "The Don Lusher Big Band"
INDEX 00 02:54:55
INDEX 01 02:56:25
TRACK 03 AUDIO
TITLE "Continental"
PERFORMER "The Don Lusher Big Band"
INDEX 00 05:54:05
INDEX 01 05:55:50
TRACK 04 AUDIO
TITLE "Isafahan"
PERFORMER "The Don Lusher Big Band"
INDEX 00 09:29:37
INDEX 01 09:31:07
TRACK 05 AUDIO
TITLE "Mission To Moscow"
PERFORMER "The Don Lusher Big Band"
INDEX 00 14:15:12
INDEX 01 14:16:57
TRACK 06 AUDIO
TITLE "Night In Tunisia"
PERFORMER "The Don Lusher Big Band"
INDEX 00 17:23:62
INDEX 01 17:25:32
TRACK 07 AUDIO
TITLE "Apple Honey"
PERFORMER "The Don Lusher Big Band"
INDEX 00 20:41:62
INDEX 01 20:43:32
TRACK 08 AUDIO
TITLE "Wave"
PERFORMER "The Don Lusher Big Band"
INDEX 00 23:16:30
INDEX 01 23:18:00
TRACK 09 AUDIO
TITLE "Shiny Stockings"
PERFORMER "The Don Lusher Big Band"
INDEX 00 26:26:70
INDEX 01 26:28:40
TRACK 10 AUDIO
TITLE "Liebestraum"
PERFORMER "The Don Lusher Big Band"
INDEX 00 30:32:15
INDEX 01 30:33:60
TRACK 11 AUDIO
TITLE "String Of Pearls"
PERFORMER "The Don Lusher Big Band"
INDEX 00 33:37:00
INDEX 01 33:38:45
TRACK 12 AUDIO
TITLE "1 O'Clock Jump"
PERFORMER "The Don Lusher Big Band"
INDEX 00 36:55:72
INDEX 01 36:57:42
Состав
Personnel Unknown - probably similar to Volumes 1-2-3
[Профиль] [ЛС]
Показать сообщения:    
Ответить на тему

Текущее время: 21-Июл 06:36

Часовой пояс: UTC + 4



Вы не можете начинать темы
Вы не можете отвечать на сообщения
Вы не можете редактировать свои сообщения
Вы не можете удалять свои сообщения
Вы не можете голосовать в опросах
Вы не можете прикреплять файлы к сообщениям
Вы не можете скачивать файлы