(Top 40, Pop, Pop-Rock, Electronic, Hip Hop, House) [CD] VA - BRAVO Hits 12 (2CD) - 1996, FLAC (image+.cue), lossless

Ответить на тему
 
Автор Сообщение

Direktor_49 ®

Стаж: 3 года 1 месяц

Сообщений: 116

Откуда: Калининград

Создавать темы 13-Апр-2019 01:21

[Цитировать]

BRAVO Hits 12 Жанр: Top 40, Pop, Pop-Rock, Electronic, Hip Hop, House, Electro, Hip-House, Synthpop, Europop, R&B, Pop Rap, Latin, Euro House, Downtempo, Indie Rock, Punk
Носитель: CD
Страна-производитель диска: Germany
Год издания: 16.02.1996
Издатель: WSM
Номер по каталогу: 9548-34162-2
Аудиокодек: FLAC (*.flac)
Тип рипа: image+.cue
Продолжительность: 02:33:50
Источник: интернет
Наличие сканов в содержимом раздачи: да
Треклист:
CD1 01:14:59
01. Everything But The Girl - Missing (Todd Terry Club Mix)
02. Blümchen - Herz An Herz
03. Dune - Rainbow To The Stars
04. Masterboy - Land Of Dreaming
05. E-Rotic - Help Me Mr. Dick
06. Fun Factory - Doh Wah Diddy
07. Music Instructor - Hands In The Air
08. Squeezer - Scandy Randy
09. Scooter - Back In The U.K.
10. Shahin + Simon - Do The Right Thing
11. Awex - Back On Plastic
12. Double Vision - Knockin'
13. Magic Affair - Energy Of Light
14. Sweetbox - Shakalaka
15. Flip Da Scrip - Throw Ya Hands In The Air '95
16. Mighty Dub Kats - Magic Carpet Ride
17. 20 Fingers Feat. Katrina - Sex Machine
18. James Smith - I Like It
19. Snap Feat. Rukmani - Rame
20. Groove Solution - Magic Melodie
CD2 01:18:51
01. Queen - Heaven For Everyone
02. Fool's Garden - Lemon Tree
03. Nick Cave & Kylie Minogue - Where The Wild Roses Grow
04. Die Toten Hosen - Nichts Bleibt Für Die Ewigkeit
05. Oasis - Wonderwall
06. Simply Red - Remembering The First Time
07. Backstreet Boys - We've Got It Goin' On
08. Max-A-Million - Sexual Healing
09. Coolio Feat. L.V. - Gangsta's Paradise
10. Rödelheim Hartreim Project - Höha, Schnella Weita (Kürza)
11. Luniz (Feat. Teddy) - Playa Hata
12. Die Fantastischen Vier - Populär
13. Skee-Lo - I Wish
14. Culture Beat - Inside Out (Not Normal Mix)
15. Dj Bobo - Love Is The Price
16. Just Friends - The Present That I Want
17. Meat Loaf - Not A Dry Eye In The House
18. Jamie Walters - Greetings + Hold On
19. Willy Deville - Runnin' Through The Jungle
20. Pur - Ein Graues Haar
Лог создания рипа CD1
Exact Audio Copy V1.0 beta 3 from 29. August 2011
EAC extraction logfile from 7. December 2013, 13:34
Various Artists / Bravo Hits 12 (CD1)
Used drive : PIONEER DVD-RW DVR-110D Adapter: 2 ID: 2
Read mode : Secure
Utilize accurate stream : Yes
Defeat audio cache : Yes
Make use of C2 pointers : No
Read offset correction : 48
Overread into Lead-In and Lead-Out : No
Fill up missing offset samples with silence : Yes
Delete leading and trailing silent blocks : No
Null samples used in CRC calculations : Yes
Used interface : Native Win32 interface for Win NT & 2000
Used output format : User Defined Encoder
Selected bitrate : 768 kBit/s
Quality : High
Add ID3 tag : No
Command line compressor : C:\Program Files\Exact Audio Copy\FLAC\FLAC.EXE
Additional command line options : -6 -V -T "ARTIST=%artist%" -T "TITLE=%title%" -T "ALBUM=%albumtitle%" -T "DATE=%year%" -T "TRACKNUMBER=%tracknr%" -T "GENRE=%genre%" -T "COMMENT=%comment%" -T "BAND=%albuminterpret%" -T "ALBUMARTIST=%albuminterpret%" -T "COMPOSER=%composer%" %haslyrics%--tag-from-file=LYRICS="%lyricsfile%"%haslyrics% -T "DISCNUMBER=%cdnumber%" -T "TOTALDISCS=%totalcds%" -T "TOTALTRACKS=%numtracks%" %hascover%--picture="%coverfile%"%hascover% %source% -o %dest%
TOC of the extracted CD
Track | Start | Length | Start sector | End sector
---------------------------------------------------------
1 | 0:00.00 | 4:58.45 | 0 | 22394
2 | 4:58.45 | 3:47.02 | 22395 | 39421
3 | 8:45.47 | 3:29.28 | 39422 | 55124
4 | 12:15.00 | 3:32.37 | 55125 | 71061
5 | 15:47.37 | 3:43.68 | 71062 | 87854
6 | 19:31.30 | 3:32.02 | 87855 | 103756
7 | 23:03.32 | 3:56.15 | 103757 | 121471
8 | 26:59.47 | 3:37.68 | 121472 | 137814
9 | 30:37.40 | 3:25.55 | 137815 | 153244
10 | 34:03.20 | 3:27.60 | 153245 | 168829
11 | 37:31.05 | 3:43.05 | 168830 | 185559
12 | 41:14.10 | 3:27.65 | 185560 | 201149
13 | 44:42.00 | 3:33.55 | 201150 | 217179
14 | 48:15.55 | 2:58.57 | 217180 | 230586
15 | 51:14.37 | 3:49.05 | 230587 | 247766
16 | 55:03.42 | 3:54.05 | 247767 | 265321
17 | 58:57.47 | 4:04.73 | 265322 | 283694
18 | 63:02.45 | 3:58.32 | 283695 | 301576
19 | 67:01.02 | 4:04.43 | 301577 | 319919
20 | 71:05.45 | 3:53.45 | 319920 | 337439
Range status and errors
Selected range
Filename D:\rip.flacmusic.ru\Various Artists - Bravo Hits 12 (CD1).wav
Peak level 98.8 %
Extraction speed 8.0 X
Range quality 100.0 %
Test CRC ECCC22F4
Copy CRC ECCC22F4
Copy OK
No errors occurred
AccurateRip summary
Track 1 accurately ripped (confidence 11) [B8EF7E41] (AR v2)
Track 2 accurately ripped (confidence 10) [32BAE548] (AR v2)
Track 3 accurately ripped (confidence 11) [87425409] (AR v2)
Track 4 accurately ripped (confidence 11) [759B29B1] (AR v2)
Track 5 accurately ripped (confidence 11) [45415A72] (AR v2)
Track 6 accurately ripped (confidence 11) [B8D7668E] (AR v2)
Track 7 accurately ripped (confidence 11) [E9E46B0F] (AR v2)
Track 8 accurately ripped (confidence 11) [9E866436] (AR v2)
Track 9 accurately ripped (confidence 11) [3B5324B6] (AR v2)
Track 10 accurately ripped (confidence 11) [788AE23B] (AR v2)
Track 11 accurately ripped (confidence 11) [6ACA405A] (AR v2)
Track 12 accurately ripped (confidence 11) [49443F68] (AR v2)
Track 13 accurately ripped (confidence 12) [CC0F7DEA] (AR v2)
Track 14 accurately ripped (confidence 11) [F1EDCB05] (AR v2)
Track 15 accurately ripped (confidence 10) [7822AC2E] (AR v2)
Track 16 accurately ripped (confidence 10) [D1B9EF58] (AR v2)
Track 17 accurately ripped (confidence 11) [E1A58F85] (AR v2)
Track 18 accurately ripped (confidence 11) [E6BD61C9] (AR v2)
Track 19 accurately ripped (confidence 11) [4892B074] (AR v2)
Track 20 accurately ripped (confidence 12) [0C94C585] (AR v2)
All tracks accurately ripped
End of status report
==== Log checksum EB9177A2DD443485F6A3ADD2045FA9C37A25ECDDC19F71D808D51777DA566B93 ====
Лог создания рипа CD2
Exact Audio Copy V1.0 beta 3 from 29. August 2011
EAC extraction logfile from 7. December 2013, 14:03
Various Artists / Bravo Hits 12 (CD2)
Used drive : PIONEER DVD-RW DVR-110D Adapter: 2 ID: 2
Read mode : Secure
Utilize accurate stream : Yes
Defeat audio cache : Yes
Make use of C2 pointers : No
Read offset correction : 48
Overread into Lead-In and Lead-Out : No
Fill up missing offset samples with silence : Yes
Delete leading and trailing silent blocks : No
Null samples used in CRC calculations : Yes
Used interface : Native Win32 interface for Win NT & 2000
Used output format : User Defined Encoder
Selected bitrate : 768 kBit/s
Quality : High
Add ID3 tag : No
Command line compressor : C:\Program Files\Exact Audio Copy\FLAC\FLAC.EXE
Additional command line options : -6 -V -T "ARTIST=%artist%" -T "TITLE=%title%" -T "ALBUM=%albumtitle%" -T "DATE=%year%" -T "TRACKNUMBER=%tracknr%" -T "GENRE=%genre%" -T "COMMENT=%comment%" -T "BAND=%albuminterpret%" -T "ALBUMARTIST=%albuminterpret%" -T "COMPOSER=%composer%" %haslyrics%--tag-from-file=LYRICS="%lyricsfile%"%haslyrics% -T "DISCNUMBER=%cdnumber%" -T "TOTALDISCS=%totalcds%" -T "TOTALTRACKS=%numtracks%" %hascover%--picture="%coverfile%"%hascover% %source% -o %dest%
TOC of the extracted CD
Track | Start | Length | Start sector | End sector
---------------------------------------------------------
1 | 0:00.00 | 4:39.57 | 0 | 20981
2 | 4:39.57 | 3:11.10 | 20982 | 35316
3 | 7:50.67 | 3:55.50 | 35317 | 52991
4 | 11:46.42 | 3:55.68 | 52992 | 70684
5 | 15:42.35 | 4:19.47 | 70685 | 90156
6 | 20:02.07 | 4:34.23 | 90157 | 110729
7 | 24:36.30 | 3:40.25 | 110730 | 127254
8 | 28:16.55 | 3:22.10 | 127255 | 142414
9 | 31:38.65 | 4:02.02 | 142415 | 160566
10 | 35:40.67 | 3:41.73 | 160567 | 177214
11 | 39:22.65 | 4:30.30 | 177215 | 197494
12 | 43:53.20 | 3:35.10 | 197495 | 213629
13 | 47:28.30 | 4:09.17 | 213630 | 232321
14 | 51:37.47 | 2:28.28 | 232322 | 243449
15 | 54:06.00 | 3:51.15 | 243450 | 260789
16 | 57:57.15 | 4:05.52 | 260790 | 279216
17 | 62:02.67 | 4:59.30 | 279217 | 301671
18 | 67:02.22 | 4:14.38 | 301672 | 320759
19 | 71:16.60 | 3:43.20 | 320760 | 337504
20 | 75:00.05 | 3:51.40 | 337505 | 354869
Range status and errors
Selected range
Filename D:\rip.flacmusic.ru\Various Artists - Bravo Hits 12 (CD2).wav
Peak level 98.8 %
Extraction speed 8.0 X
Range quality 100.0 %
Test CRC AC2D9A14
Copy CRC AC2D9A14
Copy OK
No errors occurred
AccurateRip summary
Track 1 accurately ripped (confidence 7) [7CDC0BFE] (AR v2)
Track 2 accurately ripped (confidence 7) [523C511C] (AR v2)
Track 3 accurately ripped (confidence 7) [7BBA8564] (AR v2)
Track 4 accurately ripped (confidence 7) [2A22FED8] (AR v2)
Track 5 accurately ripped (confidence 7) [48601763] (AR v2)
Track 6 accurately ripped (confidence 7) [6CB71223] (AR v2)
Track 7 accurately ripped (confidence 7) [712FCDDA] (AR v2)
Track 8 accurately ripped (confidence 7) [7DFB207D] (AR v2)
Track 9 accurately ripped (confidence 7) [A52299FB] (AR v2)
Track 10 accurately ripped (confidence 7) [415A95E9] (AR v2)
Track 11 accurately ripped (confidence 7) [4FF250E3] (AR v2)
Track 12 accurately ripped (confidence 7) [7D121C6A] (AR v2)
Track 13 accurately ripped (confidence 7) [401EFF64] (AR v2)
Track 14 accurately ripped (confidence 7) [E427D7DE] (AR v2)
Track 15 accurately ripped (confidence 7) [EB4CF5E0] (AR v2)
Track 16 accurately ripped (confidence 7) [8F19E849] (AR v2)
Track 17 accurately ripped (confidence 7) [264EBAA3] (AR v2)
Track 18 accurately ripped (confidence 7) [897076A0] (AR v2)
Track 19 accurately ripped (confidence 6) [1A0FD37C] (AR v2)
Track 20 accurately ripped (confidence 7) [5BD8C793] (AR v2)
All tracks accurately ripped
End of status report
==== Log checksum F3EDD951F7CF5D99EC03DDDB51E1D6A73261DB9E9847B17EDB2C6446769A7B1F ====
Содержание индексной карты (.CUE) CD1
REM GENRE Pop
REM DATE 1996
REM DISCID 30119314
REM COMMENT "ExactAudioCopy v1.0b3"
PERFORMER "Various Artists"
TITLE "Bravo Hits (1996) Vol.12 (CD 1)"
FILE "Bravo Hits (1996) Vol.12 (CD 1).flac" WAVE
TRACK 01 AUDIO
TITLE "Missing (Todd Terry Club Mix)"
PERFORMER "Everything But The Girl"
INDEX 01 00:00:00
TRACK 02 AUDIO
TITLE "Herz An Herz (Herz In Der Luft Radio Mix)"
PERFORMER "Blumchen"
INDEX 00 04:56:67
INDEX 01 04:58:45
TRACK 03 AUDIO
TITLE "Rainbow To The Stars"
PERFORMER "Dune"
INDEX 00 08:43:70
INDEX 01 08:45:47
TRACK 04 AUDIO
TITLE "Land Of Dreaming (Radio Edit)"
PERFORMER "Masterboy"
INDEX 00 12:13:22
INDEX 01 12:15:00
TRACK 05 AUDIO
TITLE "Help Me Mr. Dick (Radio Edit)"
PERFORMER "E-Rotic"
INDEX 00 15:45:60
INDEX 01 15:47:37
TRACK 06 AUDIO
TITLE "Doh Wah Diddy (Dee Dee Radio)"
PERFORMER "Fun Factory"
INDEX 00 19:29:52
INDEX 01 19:31:30
TRACK 07 AUDIO
TITLE "Hands In The Air (Original Mix)"
PERFORMER "Music Instructor"
INDEX 00 23:01:55
INDEX 01 23:03:32
TRACK 08 AUDIO
TITLE "Scandy Randy (Dance Radio Version)"
PERFORMER "Sqeezer"
INDEX 00 26:57:70
INDEX 01 26:59:47
TRACK 09 AUDIO
TITLE "Back In The U.K."
PERFORMER "Scooter"
INDEX 00 30:35:62
INDEX 01 30:37:40
TRACK 10 AUDIO
TITLE "Do The Right Thing (Scooter Radio Remix)"
PERFORMER "Shahin & Simon"
INDEX 00 34:01:42
INDEX 01 34:03:20
TRACK 11 AUDIO
TITLE "Back On Plastic"
PERFORMER "Awex"
INDEX 00 37:29:27
INDEX 01 37:31:05
TRACK 12 AUDIO
TITLE "Knockin'"
PERFORMER "Double Vision"
INDEX 00 41:12:32
INDEX 01 41:14:10
TRACK 13 AUDIO
TITLE "Energy Of Light (Video-Radio Mix)"
PERFORMER "Magic Affair"
INDEX 00 44:40:22
INDEX 01 44:42:00
TRACK 14 AUDIO
TITLE "Shakalaka (Hot Pants Radio Edit)"
PERFORMER "Sweetbox"
INDEX 00 48:14:02
INDEX 01 48:15:55
TRACK 15 AUDIO
TITLE "Throw Ya Hands In The Air '95 (The Remix Radio Edit)"
PERFORMER "Flip Da Scrip"
INDEX 00 51:12:60
INDEX 01 51:14:37
TRACK 16 AUDIO
TITLE "Magic Carpet Ride (No Comprende Edit)"
PERFORMER "Mighty Dub Kats"
INDEX 00 55:01:65
INDEX 01 55:03:42
TRACK 17 AUDIO
TITLE "Sex Machine"
PERFORMER "20 Fingers Feat. Katrina"
INDEX 00 58:55:70
INDEX 01 58:57:47
TRACK 18 AUDIO
TITLE "I Like It (Single Version)"
PERFORMER "James Smith"
INDEX 00 63:00:67
INDEX 01 63:02:45
TRACK 19 AUDIO
TITLE "Rame (Slomo Version)"
PERFORMER "Snap! Feat. Rukmani"
INDEX 00 66:59:25
INDEX 01 67:01:02
TRACK 20 AUDIO
TITLE "Magic Melodie (Original Club Mix Edit)"
PERFORMER "Groove Solution"
INDEX 00 71:03:67
INDEX 01 71:05:45
Содержание индексной карты (.CUE) CD2
REM GENRE Pop
REM DATE 1996
REM DISCID 26127B14
REM COMMENT "ExactAudioCopy v1.0b3"
PERFORMER "Various Artists"
TITLE "Bravo Hits (1996) Vol.12 (CD 2)"
FILE "Bravo Hits (1996) Vol.12 (CD 2).flac" WAVE
TRACK 01 AUDIO
TITLE "Heaven For Everyone"
PERFORMER "Queen"
INDEX 01 00:00:00
TRACK 02 AUDIO
TITLE "Lemon Tree"
PERFORMER "Fool's Garden"
INDEX 00 04:38:42
INDEX 01 04:39:57
TRACK 03 AUDIO
TITLE "Where The Wild Roses Grow"
PERFORMER "Nick Cave & The Bad Seeds And Kylie Minogue"
INDEX 00 07:49:52
INDEX 01 07:50:67
TRACK 04 AUDIO
TITLE "Nichts Bleibt Fur Die Ewigkeit"
PERFORMER "Die Toten Hosen"
INDEX 00 11:45:25
INDEX 01 11:46:42
TRACK 05 AUDIO
TITLE "Wonderwall"
PERFORMER "Oasis"
INDEX 00 15:41:20
INDEX 01 15:42:35
TRACK 06 AUDIO
TITLE "Remembering The First Time (Radio Disco Mix)"
PERFORMER "Simply Red"
INDEX 00 20:00:67
INDEX 01 20:02:07
TRACK 07 AUDIO
TITLE "We've Got It Goin' On"
PERFORMER "Backstreet Boys"
INDEX 00 24:35:15
INDEX 01 24:36:30
TRACK 08 AUDIO
TITLE "Sexual Healing (Radio Edit)"
PERFORMER "Max-A-Million"
INDEX 00 28:15:40
INDEX 01 28:16:55
TRACK 09 AUDIO
TITLE "Gangsta's Paradise"
PERFORMER "Coolio Feat. L.V."
INDEX 00 31:37:50
INDEX 01 31:38:65
TRACK 10 AUDIO
TITLE "Hoha, Schnella, Weita (Kurza)"
PERFORMER "Rodelheim Hartreim Project"
INDEX 00 35:39:52
INDEX 01 35:40:67
TRACK 11 AUDIO
TITLE "Playa Hata"
PERFORMER "Luniz Feat. Teddy"
INDEX 00 39:21:50
INDEX 01 39:22:65
TRACK 12 AUDIO
TITLE "Popular (Video Version)"
PERFORMER "Die Fantastischen Vier"
INDEX 00 43:52:05
INDEX 01 43:53:20
TRACK 13 AUDIO
TITLE "I Wish (Radio Edit)"
PERFORMER "Skee-Lo"
INDEX 00 47:27:15
INDEX 01 47:28:30
TRACK 14 AUDIO
TITLE "Inside Out (Not Normal Mix)"
PERFORMER "Culture Beat"
INDEX 00 51:36:32
INDEX 01 51:37:47
TRACK 15 AUDIO
TITLE "Love Is The Price"
PERFORMER "DJ Bobo"
INDEX 00 54:04:60
INDEX 01 54:06:00
TRACK 16 AUDIO
TITLE "The Present That I Want (Single Mix)"
PERFORMER "Just Friends"
INDEX 00 57:56:00
INDEX 01 57:57:15
TRACK 17 AUDIO
TITLE "Not A Dry Eye In The House"
PERFORMER "Meat Loaf"
INDEX 00 62:01:52
INDEX 01 62:02:67
TRACK 18 AUDIO
TITLE "Greetings + Hold On (Edit)"
PERFORMER "Jamie Walters"
INDEX 00 67:01:07
INDEX 01 67:02:22
INDEX 02 67:15:15
TRACK 19 AUDIO
TITLE "Runnin' Through The Jungle (Shootin' The Blues)"
PERFORMER "Willy Deville"
INDEX 00 71:15:45
INDEX 01 71:16:60
TRACK 20 AUDIO
TITLE "Ein Graues Haar (Single Version)"
PERFORMER "Pur"
INDEX 00 74:58:65
INDEX 01 75:00:05
[Профиль] [ЛС]
Показать сообщения:    
Ответить на тему

Текущее время: 13-Дек 09:26

Часовой пояс: UTC + 4



Вы не можете начинать темы
Вы не можете отвечать на сообщения
Вы не можете редактировать свои сообщения
Вы не можете удалять свои сообщения
Вы не можете голосовать в опросах
Вы не можете прикреплять файлы к сообщениям
Вы не можете скачивать файлы