Alice Merton - Mint (2019) [FLAC|Lossless|tracks + .cue] <Pop, Indie Pop>

Ответить на тему
 
Автор Сообщение

Direktor_49 ®

Стаж: 2 года 11 месяцев

Сообщений: 15

Откуда: Калининград

Создавать темы 22-Мар-2019 13:09

[Цитировать]

Alice Merton - Mint (2019) - Жанр: Pop, Indie Pop
Издание: Paper Plane Records Int. ‎– PPRI-2019-14
Продолжительность: 00:38:21
Кодек: FLAC
Битрейт: Lossless
Тип рипа: tracks + .cue
Треклист:
01. Learn to Live (03:56)
02. 2 Kids (03:31)
03. No Roots (03:57)
04. Funny Business (03:06)
05. Homesick (03:16)
06. Lash Out (03:14)
07. Speak Your Mind (03:32)
08. I Don't Hold a Grudge (03:39)
09. Honeymoon Heartbreak (03:23)
10. Trouble in Paradise (02:57)
11. Why So Serious (03:47)
Дополнительная информация
Отчёт EAC
Exact Audio Copy V1.3 from 2. September 2016
EAC extraction logfile from 20. March 2019, 22:50
Alice Merton / Mint
Used drive : ATAPI iHAS124 F Adapter: 1 ID: 0
Read mode : Secure
Utilize accurate stream : Yes
Defeat audio cache : Yes
Make use of C2 pointers : No
Read offset correction : 6
Overread into Lead-In and Lead-Out : No
Fill up missing offset samples with silence : Yes
Delete leading and trailing silent blocks : No
Null samples used in CRC calculations : Yes
Used interface : Native Win32 interface for Win NT & 2000
Gap handling : Appended to previous track
Used output format : User Defined Encoder
Selected bitrate : 1024 kBit/s
Quality : High
Add ID3 tag : No
Command line compressor : C:\Program Files (x86)\Exact Audio Copy\Flac\flac.exe
Additional command line options : -8 -e -p -V -T "ARTIST=%artist%" -T "TITLE=%title%" -T "ALBUM=%albumtitle%" -T "DATE=%year%" -T "TRACKNUMBER=%tracknr%" -T "GENRE=%genre%" -T "PERFORMER=%albuminterpret%" -T "COMPOSER=%composer%" %haslyrics%--tag-from-file=LYRICS="%lyricsfile%"%haslyrics% -T "ALBUMARTIST=%albumartist%" -T "DISCNUMBER=%cdnumber%" -T "TOTALDISCS=%totalcds%" -T "TOTALTRACKS=%numtracks%" -T "COMMENT=%comment%" %source% -o %dest%
TOC of the extracted CD
Track | Start | Length | Start sector | End sector
---------------------------------------------------------
1 | 0:00.00 | 3:57.52 | 0 | 17826
2 | 3:57.52 | 3:33.07 | 17827 | 33808
3 | 7:30.59 | 3:58.29 | 33809 | 51687
4 | 11:29.13 | 3:07.73 | 51688 | 65785
5 | 14:37.11 | 3:17.61 | 65786 | 80621
6 | 17:54.72 | 3:16.08 | 80622 | 95329
7 | 21:11.05 | 3:33.51 | 95330 | 111355
8 | 24:44.56 | 3:40.32 | 111356 | 127887
9 | 28:25.13 | 3:24.35 | 127888 | 143222
10 | 31:49.48 | 2:58.48 | 143223 | 156620
11 | 34:48.21 | 3:48.21 | 156621 | 173741
Track 1
Filename F:\Dropbox\EAC\Alice Merton - Mint (2019) [FLAC]\01 - Learn to Live.wav
Pre-gap length 0:00:02.00
Peak level 100.0 %
Extraction speed 4.3 X
Track quality 99.9 %
Test CRC D5EFBF3D
Copy CRC D5EFBF3D
Accurately ripped (confidence 8) [CDC09AD2] (AR v2)
Copy OK
Track 2
Filename F:\Dropbox\EAC\Alice Merton - Mint (2019) [FLAC]\02 - 2 Kids.wav
Pre-gap length 0:00:01.09
Peak level 98.7 %
Extraction speed 4.6 X
Track quality 99.9 %
Test CRC 469F9350
Copy CRC 469F9350
Accurately ripped (confidence 9) [A0E53D0D] (AR v2)
Copy OK
Track 3
Filename F:\Dropbox\EAC\Alice Merton - Mint (2019) [FLAC]\03 - No Roots.wav
Pre-gap length 0:00:01.09
Peak level 98.2 %
Extraction speed 5.2 X
Track quality 99.9 %
Test CRC A7A4A712
Copy CRC A7A4A712
Accurately ripped (confidence 9) [E3C8A72D] (AR v2)
Copy OK
Track 4
Filename F:\Dropbox\EAC\Alice Merton - Mint (2019) [FLAC]\04 - Funny Business.wav
Pre-gap length 0:00:01.08
Peak level 98.7 %
Extraction speed 6.4 X
Track quality 100.0 %
Test CRC 293894B3
Copy CRC 293894B3
Accurately ripped (confidence 9) [E22B7DB4] (AR v2)
Copy OK
Track 5
Filename F:\Dropbox\EAC\Alice Merton - Mint (2019) [FLAC]\05 - Homesick.wav
Pre-gap length 0:00:01.08
Peak level 98.7 %
Extraction speed 6.8 X
Track quality 100.0 %
Test CRC 4076A962
Copy CRC 4076A962
Accurately ripped (confidence 8) [159DC583] (AR v2)
Copy OK
Track 6
Filename F:\Dropbox\EAC\Alice Merton - Mint (2019) [FLAC]\06 - Lash Out.wav
Pre-gap length 0:00:01.08
Peak level 98.7 %
Extraction speed 7.2 X
Track quality 100.0 %
Test CRC 25F6C0C6
Copy CRC 25F6C0C6
Accurately ripped (confidence 9) [7A97DFC9] (AR v2)
Copy OK
Track 7
Filename F:\Dropbox\EAC\Alice Merton - Mint (2019) [FLAC]\07 - Speak Your Mind.wav
Pre-gap length 0:00:01.08
Peak level 98.7 %
Extraction speed 7.6 X
Track quality 100.0 %
Test CRC 539164A1
Copy CRC 539164A1
Accurately ripped (confidence 9) [06F17494] (AR v2)
Copy OK
Track 8
Filename F:\Dropbox\EAC\Alice Merton - Mint (2019) [FLAC]\08 - I Don’t Hold a Grudge.wav
Pre-gap length 0:00:01.08
Peak level 98.7 %
Extraction speed 6.5 X
Track quality 99.9 %
Test CRC 96674EFD
Copy CRC 96674EFD
Accurately ripped (confidence 8) [B4B0AD32] (AR v2)
Copy OK
Track 9
Filename F:\Dropbox\EAC\Alice Merton - Mint (2019) [FLAC]\09 - Honeymoon Heartbreak.wav
Pre-gap length 0:00:01.08
Peak level 98.7 %
Extraction speed 8.2 X
Track quality 100.0 %
Test CRC 29114332
Copy CRC 29114332
Accurately ripped (confidence 8) [B741EB7D] (AR v2)
Copy OK
Track 10
Filename F:\Dropbox\EAC\Alice Merton - Mint (2019) [FLAC]\10 - Trouble in Paradise.wav
Pre-gap length 0:00:01.09
Peak level 98.7 %
Extraction speed 6.6 X
Track quality 99.9 %
Test CRC 392A5F12
Copy CRC 392A5F12
Accurately ripped (confidence 9) [0C5365C1] (AR v2)
Copy OK
Track 11
Filename F:\Dropbox\EAC\Alice Merton - Mint (2019) [FLAC]\11 - Why So Serious.wav
Pre-gap length 0:00:01.09
Peak level 98.7 %
Extraction speed 8.9 X
Track quality 100.0 %
Test CRC 4BE88ED1
Copy CRC 4BE88ED1
Accurately ripped (confidence 9) [F49FD0B3] (AR v2)
Copy OK
All tracks accurately ripped
No errors occurred
End of status report
---- CUETools DB Plugin V2.1.6
[CTDB TOCID: kAlUKsQuVt6nOZ3_p0dFkTMH9ss-] found
Submit result: kAlUKsQuVt6nOZ3_p0dFkTMH9ss- has been confirmed
Track | CTDB Status
1 | (109/110) Accurately ripped
2 | (110/110) Accurately ripped
3 | (110/110) Accurately ripped
4 | (110/110) Accurately ripped
5 | (109/110) Accurately ripped
6 | (110/110) Accurately ripped
7 | (109/110) Accurately ripped
8 | (108/110) Accurately ripped
9 | (108/110) Accurately ripped
10 | (109/110) Accurately ripped
11 | (109/110) Accurately ripped
==== Log checksum 37D84ECAAB8C0522262B7F5CB76AF373AA349CC5BDC636E7D79EF47B9B2707C2 ====
Время раздачи: круглосуточно (до появления первых 3-5 скачавших)
[Профиль] [ЛС]
Показать сообщения:    
Ответить на тему

Текущее время: 15-Окт 23:39

Часовой пояс: UTC + 4



Вы не можете начинать темы
Вы не можете отвечать на сообщения
Вы не можете редактировать свои сообщения
Вы не можете удалять свои сообщения
Вы не можете голосовать в опросах
Вы не можете прикреплять файлы к сообщениям
Вы не можете скачивать файлы