Призраки дома на холме /Haunting of Hill House (Сезон 1, Серия 1 - 10 из 10 )( Майк Флэнеган) [2018, :Ужасы , WEB-DLRip 1080p][ Lostfilm+TVShows+NewStudio+AlexFilm+ARK-TV Studio+Eng]+[Subs ENG+Rus]

Ответить на тему
 
Автор Сообщение

Nikolai.Baranov ®

Стаж: 1 год 1 месяц

Сообщений: 87

Откуда: КРАСНОГОРСК

Создавать темы 10-Янв-2019 21:03

[Цитировать]

-- --Призраки дома на холме /Haunting of Hill House Сезон 1, Серия 1 - 10 из 10 -Полный Комплек -- --Год выпуска: 2018
Выпущено: США , США, Universal Cable Productions
Жанр:Ужасы
Продолжительность: 00:55:00
Сезон:1
Серия: 1 - 10
Количество серий в сезоне: 10--Озвучка 1: - Профессиональный многоголосый -Lostfilm- Русский
Озвучка2: Профессиональный многоголосый - TVShows -Русский
Озвучка 3: Профессиональный многоголосый - NewStudio -Русский
Озвучка 4: Профессиональный многоголосый - AlexFilm -Русский
Озвучка 5: Профессиональный многоголосый - ARK-TV Studio -Русский
Озвучка 6: Профессиональный многоголосый - Английский - Оригинал
Субтитры: : Russian, English SDH --Релиз Без Рекламы --MDB --Режиссер: Майк Флэнеган--В ролях: Маккенна Грэйс, Карла Гуджино, Микил Хаусмен, Тимоти Хаттон, Генри Томас, Лулу Уилсон, Оливер Джексон-Коэн, Элизабет Ризер, Кейт Сигел, Саманта Слойан, Роберт Лонгстрит, Джеймс Лэфферти, Катрин Паркер, Элизабет Бечка, Джордана Кристи, Энтони Руйвивар, Кэти Карпентер, Анна Энгер, Джеймс Флэнеган, Эрианн Мартин, Дэвид Моретти-- В провинциальном городке, в котором живет главный герой, есть старинный особняк, расположенный недалеко от лесного массива. Раньше там жили обеспеченные люди, которые хотели оградить себя от шума города и уединиться с природой. Однако, из-за череды загадочных смертей, дом опустел. Никто не горел желанием приобретать недвижимость, в которой погибали люди. Ведь никто не мог объяснить причину их кончины. Частенько строение посещали отчаянные подростки, которые хотели пощекотать себе нервы. Но постепенно и их визиты стали редкостью. Причиной этого послужили странные силуэты и шумы, которые наполняли дом.-- --Качество :WEB-DLRip 1080p
Формат: MKV
Видео кодек: H264
Видео: 6595Кбит/сек,1920х960(2.000), в 23.976кадр/сек,AVC (High@L4.1)(CABAC/4 Ref Frames)--Аудио Кодек:AC3
Аудио #1:AC3 384 Kbps, 48.0 KHz, 6 ch- Lostfilm -Русский
Аудио #2:AC3 , 384 Kbps, 48.0 KHz, 6 ch- TVShows -Русский
Аудио #3:AC3 , 384 Kbps, 48.0 KHz, 6 ch- AlexFilm -Русский
Аудио #4:AC3 , 384 Kbps, 48.0 KHz, 6 ch- ARK-TV Studio -Русский
Аудио #5:AC3 , 384 Kbps, 48.0 KHz, 6 ch- NewStudio -Русский
Аудио #6: AC3, 640 Kbps, 48.0 KHz,6 ch - - English - Оригинал--
Доп. информация:
Звуковая дорожка сделана путем наложения чистого голоса озвучивателей на центральный канал оригинальной дорожки. Качество идентично звуковой дорожке.
--
Список эпизодов сезона

1 сезон 1 серия- Стивен видит призрака - Steven Sees a Ghost
1 сезон 2 серия - Открытый гроб - Open Casket
1 сезон 3 серия - Касание - Touch
1 сезон 4 серия - Связь близнецов - The Twin Thing
1 сезон 5 серия - Дама со свернутой шеей - The Bent-Neck Lady
1 сезон 6 серия - Две бури - Two Storms
1 сезон 7 серия - Надгробная речь - Eulogy
1 сезон 8 серия - Часовые отметки - Witness Marks
1 сезон 9 серия - Ужасающий кошмар - Screaming Meemies
1 сезон 10 серия - Там царит тишина - Silence Lay Steadily
--
MediaInfo сезона
Общее
Уникальный идентификатор : 157749791542331768886692325535824491431 (0x76AD8135AC126ABB7492C5D96ED833A7)
Полное имя : C:\Nikolai.Baranov & PIRATIYA\Призраки дома на холме\The_Haunting_of_Hill_House_2018_S01_N.B_HD_1080_5xRus_Eng\The_Haunting_of_Hill_House_S01E01_Н264_DD5.1_N.B_HD_1080_5xRus_Eng.mkv
Формат : Matroska
Версия формата : Version 4
Размер файла : 3,82 Гбайт
Продолжительность : 1 ч. 0 м.
Общий поток : 9098 Кбит/сек
Название фильма : The Haunting of Hill House 2018 S01Е01 @ Nikolai.Baranov & PIRATIYA
Дата кодирования : UTC 2019-01-06 14:21:48
Программа кодирования : mkvmerge v30.1.0 ('Forever And More') 64-bit
Библиотека кодирования : libebml v1.3.6 + libmatroska v1.4.9
Attachments : poster.png
Видео
Идентификатор : 1
Формат : AVC
Формат/Информация : Advanced Video Codec
Профиль формата : High@L4.1
Настройки формата : CABAC / 4 Ref Frames
Параметр CABAC формата : Да
Параметр RefFrames формата : 4 кадра
Идентификатор кодека : V_MPEG4/ISO/AVC
Продолжительность : 59 м. 39 с.
Битрейт : 6595 Кбит/сек
Ширина : 1920 пикселей
Высота : 960 пикселей
Соотношение сторон : 2,000
Режим частоты кадров : Постоянный
Частота кадров : 23,976 (24000/1001) кадра/сек
Цветовое пространство : YUV
Субдискретизация насыщенности : 4:2:0
Битовая глубина : 8 бит
Тип развёртки : Прогрессивная
Бит/(Пиксели*Кадры) : 0.149
Размер потока : 2,75 Гбайт (72%)
Заголовок : The_Haunting_of_Hill_House_S01E01_Н264_DD5.1_N.B_HD_1080_5xRus_Eng
Библиотека кодирования : x264 core 157 r2932+2 (master: 303c484 / tmod: 1b88d0a) [X86_64]
Настройки программы : cabac=1 / ref=4 / deblock=1:-3:-3 / analyse=0x3:0x133 / me=umh / subme=11 / psy=1 / psy_rd=1.05:0.15 / mixed_ref=1 / me_range=48 / chroma_me=1 / trellis=2 / 8x8dct=1 / cqm=0 / deadzone=6,6 / fast_pskip=0 / chroma_qp_offset=-3 / threads=30 / lookahead_threads=7 / sliced_threads=0 / nr=0 / decimate=0 / interlaced=0 / bluray_compat=0 / constrained_intra=0 / bframes=10 / b_pyramid=2 / b_adapt=2 / b_bias=0 / direct=3 / weightb=1 / open_gop=0 / weightp=2 / keyint=250 / keyint_min=23 / scenecut=40 / intra_refresh=0 / rc=crf / mbtree=0 / crf=17.0 / qcomp=0.70 / qpmin=0 / qpmax=69 / qpstep=4 / ip_ratio=1.25 / pb_ratio=1.20 / aq=3:0.70
Язык : Russian
Default : Да
Forced : Нет
Аудио #1
Идентификатор : 6
Формат : AC-3
Формат/Информация : Audio Coding 3
Коммерческое название : Dolby Digital
Идентификатор кодека : A_AC3
Продолжительность : 1 ч. 0 м.
Вид битрейта : Постоянный
Битрейт : 384 Кбит/сек
Каналы : 6 каналов
Channel layout : L R C LFE Ls Rs
Частота : 48,0 КГц
Частота кадров : 31,250 кадров/сек (1536 SPF)
Битовая глубина : 16 бит
Метод сжатия : С потерями
Размер потока : 165 Мбайт (4%)
Заголовок : MVO LostFilm @DD5.1 AC3, 384 Kbps, 48.0 KHz, 6 ch
Язык : Russian
ServiceKind/String : Complete Main
Default : Да
Forced : Нет
Аудио #2
Идентификатор : 7
Формат : AC-3
Формат/Информация : Audio Coding 3
Коммерческое название : Dolby Digital
Идентификатор кодека : A_AC3
Продолжительность : 1 ч. 0 м.
Вид битрейта : Постоянный
Битрейт : 384 Кбит/сек
Каналы : 6 каналов
Channel layout : L R C LFE Ls Rs
Частота : 48,0 КГц
Частота кадров : 31,250 кадров/сек (1536 SPF)
Битовая глубина : 16 бит
Метод сжатия : С потерями
Размер потока : 165 Мбайт (4%)
Заголовок : MVO TVShows @DD5.1 AC3, 384 Kbps, 48.0 KHz, 6 ch
Язык : Russian
ServiceKind/String : Complete Main
Default : Нет
Forced : Нет
Аудио #3
Идентификатор : 8
Формат : AC-3
Формат/Информация : Audio Coding 3
Коммерческое название : Dolby Digital
Идентификатор кодека : A_AC3
Продолжительность : 59 м. 39 с.
Вид битрейта : Постоянный
Битрейт : 384 Кбит/сек
Каналы : 6 каналов
Channel layout : L R C LFE Ls Rs
Частота : 48,0 КГц
Частота кадров : 31,250 кадров/сек (1536 SPF)
Битовая глубина : 16 бит
Метод сжатия : С потерями
Размер потока : 164 Мбайт (4%)
Заголовок : MVO NewStudio @DD5.1 AC3, 384 Kbps, 48.0 KHz, 6 ch
Язык : Russian
ServiceKind/String : Complete Main
Default : Нет
Forced : Нет
Аудио #4
Идентификатор : 9
Формат : AC-3
Формат/Информация : Audio Coding 3
Коммерческое название : Dolby Digital
Идентификатор кодека : A_AC3
Продолжительность : 59 м. 38 с.
Вид битрейта : Постоянный
Битрейт : 384 Кбит/сек
Каналы : 6 каналов
Channel layout : L R C LFE Ls Rs
Частота : 48,0 КГц
Частота кадров : 31,250 кадров/сек (1536 SPF)
Битовая глубина : 16 бит
Метод сжатия : С потерями
Размер потока : 164 Мбайт (4%)
Заголовок : MVO AlexFilm @DD5.1 AC3, 384 Kbps, 48.0 KHz, 6 ch
Язык : Russian
ServiceKind/String : Complete Main
Default : Нет
Forced : Нет
Аудио #5
Идентификатор : 10
Формат : AC-3
Формат/Информация : Audio Coding 3
Коммерческое название : Dolby Digital
Идентификатор кодека : A_AC3
Продолжительность : 59 м. 38 с.
Вид битрейта : Постоянный
Битрейт : 384 Кбит/сек
Каналы : 6 каналов
Channel layout : L R C LFE Ls Rs
Частота : 48,0 КГц
Частота кадров : 31,250 кадров/сек (1536 SPF)
Битовая глубина : 16 бит
Метод сжатия : С потерями
Размер потока : 164 Мбайт (4%)
Заголовок : MVO ARK-TV Studio @DD5.1 AC3, 384 Kbps, 48.0 KHz, 6 ch
Язык : Russian
ServiceKind/String : Complete Main
Default : Нет
Forced : Нет
Аудио #6
Идентификатор : 11
Формат : AC-3
Формат/Информация : Audio Coding 3
Коммерческое название : Dolby Digital
Идентификатор кодека : A_AC3
Продолжительность : 59 м. 39 с.
Вид битрейта : Постоянный
Битрейт : 640 Кбит/сек
Каналы : 6 каналов
Channel layout : L R C LFE Ls Rs
Частота : 48,0 КГц
Частота кадров : 31,250 кадров/сек (1536 SPF)
Битовая глубина : 16 бит
Метод сжатия : С потерями
Размер потока : 273 Мбайт (7%)
Заголовок : Original@DD5.1 AC3 ,640 Kbps, 48.0 KHz, 6 ch
Язык : English
ServiceKind/String : Complete Main
Default : Нет
Forced : Нет
Текст #1
Идентификатор : 2
Формат : ASS
Идентификатор кодека : S_TEXT/ASS
Идентификатор кодека/Информация : Advanced Sub Station Alpha
Продолжительность : 45 м. 15 с.
Битрейт : 2 бит/сек
ElementCount : 12
Метод сжатия : Без потерь
Размер потока : 792 байт (0%)
Заголовок : Rus - Forced
Язык : Russian
Default : Да
Forced : Нет
Текст #2
Идентификатор : 3
Формат : UTF-8
Идентификатор кодека : S_TEXT/UTF8
Идентификатор кодека/Информация : UTF-8 Plain Text
Продолжительность : 59 м. 18 с.
Битрейт : 78 бит/сек
ElementCount : 806
Размер потока : 34,1 Кбайт (0%)
Заголовок : Rus
Язык : Russian
Default : Нет
Forced : Нет
Текст #3
Идентификатор : 4
Формат : UTF-8
Идентификатор кодека : S_TEXT/UTF8
Идентификатор кодека/Информация : UTF-8 Plain Text
Продолжительность : 58 м. 7 с.
Битрейт : 55 бит/сек
ElementCount : 818
Размер потока : 23,6 Кбайт (0%)
Заголовок : Original - SDH
Язык : English
Default : Нет
Forced : Нет
Текст #4
Идентификатор : 5
Формат : UTF-8
Идентификатор кодека : S_TEXT/UTF8
Идентификатор кодека/Информация : UTF-8 Plain Text
Продолжительность : 58 м. 7 с.
Битрейт : 51 бит/сек
ElementCount : 779
Размер потока : 22,0 Кбайт (0%)
Заголовок : Original
Язык : English
Default : Нет
Forced : Нет
Меню
00:00:00.000 : :Глава 01 / :Глава 01 / :Глава 01 / :Глава 01 / :Глава 01 / :Глава 01 / :Глава 01 / :Глава 01 / :Глава 01 / :Глава 01 / :Глава 01
--
Скриншоты
-- Сезон 1--
Как закачать отдельный файл
1. Открыть торрент
2. Снять галки с тех файлов торрента, которые мы не хотим закачивать. Оставляем только на нужных нам файлах (файле).
3. Нажать О.К.
В клиенте utorrent
Инструкция
1) Открыть торрент

2) Снять галки с тех файлов торрента, которые мы не хотим закачивать:
* либо вручную, снимая с каждого файла галку( скрин №1)
* либо, нажав кнопку "Снять метки (Select None)", сняв сразу со всех файлов(скрин №2)
№1

№2

Оставляем только на нужных нам файлах (файле).

3)Нажать О.К
-- -- --Релиз от: Nikolai.Baranov & PIRATIYA . Поблагодарить:
ЯД: 410017546713876
-- -- -- --Время раздачи : 24/7--
[Профиль] [ЛС]
Показать сообщения:    
Ответить на тему

Текущее время: 26-Июн 14:09

Часовой пояс: UTC + 4



Вы не можете начинать темы
Вы не можете отвечать на сообщения
Вы не можете редактировать свои сообщения
Вы не можете удалять свои сообщения
Вы не можете голосовать в опросах
Вы не можете прикреплять файлы к сообщениям
Вы не можете скачивать файлы