(Soft Rock, Pop Rock) [CD] Chris Norman - Definitive Collection Smokie And Solo Years 2CD, Compilation, Remastered, Limited Deluxe Edition- 2018, FLAC (image+.cue), lossless

Ответить на тему
 
Автор Сообщение

2v2w ®

Стаж: 6 лет 5 месяцев

Сообщений: 1909

Создавать темы 12-Дек-2018 22:59

[Цитировать]

--Chris Norman - Definitive Collection Smokie And Solo Years 2CD, Compilation, Remastered, Limited Deluxe Edition-- Жанр: Soft Rock, Pop Rock
Носитель: CD
Страна-производитель диска (релиза): Europe
Год издания: 2018
Издатель (лейбл): Edel Records
Номер по каталогу: 021278EME
Страна исполнителя (группы): UK
Аудиокодек: FLAC (*.flac)
Тип рипа: image+.cue
Битрейт аудио: lossless
Продолжительность: 02:07:49
Источник (релизер): aduard72
Наличие сканов в содержимом раздачи: да
Треклист:
CD1: The Smokie Years
01.If You Think You Know How to Love Me (Remastered)3:39
02.Don't Play Your Rock'n Roll to Me (Remastered)3:22
03.Something's Been Making Me Blue (Remastered)3:03
04.Wild Angels 4:01
05.I'll Meet You at Midnight 3:19
06.Living Next Door to Alice 3:27
07.Lay Back in the Arms of Someone 4:11
08.It's Your Life 3:37
09.Needles & Pins 2:37
10.For a Few Dollars More 3:29
11.Oh Carol 3:42
12.Mexican Girl 4:03
13.Babe It's Up to You 3:38
14.San Francisco Bay 3:18
15.Take Good Care of My Baby 3:23
Продолжительность: 00:52:49
Лог создания рипа
Exact Audio Copy V1.1 from 23. June 2015
EAC extraction logfile from 4. December 2018, 0:17
Chris Norman / Definitive Collection - Smokie And Solo Years CD1
Used drive : TSSTcorpDVDWBD SH-B123L Adapter: 0 ID: 4
Read mode : Secure
Utilize accurate stream : Yes
Defeat audio cache : Yes
Make use of C2 pointers : No
Read offset correction : 6
Overread into Lead-In and Lead-Out : No
Fill up missing offset samples with silence : Yes
Delete leading and trailing silent blocks : No
Null samples used in CRC calculations : Yes
Used interface : Installed external ASPI interface
Used output format : User Defined Encoder
Selected bitrate : 768 kBit/s
Quality : High
Add ID3 tag : No
Command line compressor : C:\Program Files (x86)\Exact Audio Copy\FLAC\FLAC.EXE
Additional command line options : -6 -V -T "ARTIST=%artist%" -T "TITLE=%title%" -T "ALBUM=%albumtitle%" -T "DATE=%year%" -T "TRACKNUMBER=%tracknr%" -T "GENRE=%genre%" -T "COMMENT=%comment%" -T "BAND=%albuminterpret%" -T "ALBUMARTIST=%albuminterpret%" -T "COMPOSER=%composer%" %haslyrics%--tag-from-file=LYRICS="%lyricsfile%"%haslyrics% -T "DISCNUMBER=%cdnumber%" -T "TOTALDISCS=%totalcds%" -T "TOTALTRACKS=%numtracks%" %hascover%--picture="%coverfile%"%hascover% %source% -o %dest%
TOC of the extracted CD
Track | Start | Length | Start sector | End sector
---------------------------------------------------------
1 | 0:00.00 | 3:38.42 | 0 | 16391
2 | 3:38.42 | 3:22.26 | 16392 | 31567
3 | 7:00.68 | 3:02.62 | 31568 | 45279
4 | 10:03.55 | 4:01.11 | 45280 | 63365
5 | 14:04.66 | 3:19.29 | 63366 | 78319
6 | 17:24.20 | 3:27.24 | 78320 | 93868
7 | 20:51.44 | 4:11.06 | 93869 | 112699
8 | 25:02.50 | 3:36.64 | 112700 | 128963
9 | 28:39.39 | 2:37.01 | 128964 | 140739
10 | 31:16.40 | 3:29.14 | 140740 | 156428
11 | 34:45.54 | 3:41.45 | 156429 | 173048
12 | 38:27.24 | 4:03.26 | 173049 | 191299
13 | 42:30.50 | 3:37.46 | 191300 | 207620
14 | 46:08.21 | 3:17.71 | 207621 | 222466
15 | 49:26.17 | 3:22.49 | 222467 | 237665
Range status and errors
Selected range
Filename E:\MUSIC\Chris Norman - Definitive Collection - Smokie And Solo Years CD1.wav
Peak level 97.7 %
Extraction speed 3.2 X
Range quality 100.0 %
Test CRC 6896A3E6
Copy CRC 6896A3E6
Copy OK
No errors occurred
AccurateRip summary
Track 1 not present in database
Track 2 not present in database
Track 3 not present in database
Track 4 not present in database
Track 5 not present in database
Track 6 not present in database
Track 7 not present in database
Track 8 not present in database
Track 9 not present in database
Track 10 not present in database
Track 11 not present in database
Track 12 not present in database
Track 13 not present in database
Track 14 not present in database
Track 15 not present in database
None of the tracks are present in the AccurateRip database
End of status report
==== Log checksum 4D0E921975279BFAC8A81E4BE13DA698F89D63E0AF8AD6C80EBB02E066A628B8 ====
Содержание индексной карты (.CUE)
REM GENRE Rock
REM DATE 2018
REM DISCID C40C600F
REM COMMENT "ExactAudioCopy v1.1"
PERFORMER "Chris Norman"
TITLE "Definitive Collection - Smokie And Solo Years CD1"
FILE "Chris Norman - Definitive Collection - Smokie And Solo Years CD1.flac" WAVE
TRACK 01 AUDIO
TITLE "If You Think You Know How to Love Me"
PERFORMER "Chris Norman"
INDEX 01 00:00:00
TRACK 02 AUDIO
TITLE "Don't Play Your Rock'n Roll to Me"
PERFORMER "Chris Norman"
INDEX 01 03:38:42
TRACK 03 AUDIO
TITLE "Something's Been Making Me Blue"
PERFORMER "Chris Norman"
INDEX 01 07:00:68
TRACK 04 AUDIO
TITLE "Wild Angels"
PERFORMER "Chris Norman"
INDEX 01 10:03:55
TRACK 05 AUDIO
TITLE "I'll Meet You at Midnight"
PERFORMER "Chris Norman"
INDEX 01 14:04:66
TRACK 06 AUDIO
TITLE "Living Next Door to Alice"
PERFORMER "Chris Norman"
INDEX 01 17:24:20
TRACK 07 AUDIO
TITLE "Lay Back in the Arms of Someone"
PERFORMER "Chris Norman"
INDEX 01 20:51:44
TRACK 08 AUDIO
TITLE "It's Your Life"
PERFORMER "Chris Norman"
INDEX 01 25:02:50
TRACK 09 AUDIO
TITLE "Needles & Pins"
PERFORMER "Chris Norman"
INDEX 01 28:39:39
TRACK 10 AUDIO
TITLE "For a Few Dollars More"
PERFORMER "Chris Norman"
INDEX 01 31:16:40
TRACK 11 AUDIO
TITLE "Oh Carol"
PERFORMER "Chris Norman"
INDEX 01 34:45:54
TRACK 12 AUDIO
TITLE "Mexican Girl"
PERFORMER "Chris Norman"
INDEX 01 38:27:24
TRACK 13 AUDIO
TITLE "Babe It's Up to You"
PERFORMER "Chris Norman"
INDEX 01 42:30:50
TRACK 14 AUDIO
TITLE "San Francisco Bay"
PERFORMER "Chris Norman"
INDEX 01 46:08:21
TRACK 15 AUDIO
TITLE "Take Good Care of My Baby"
PERFORMER "Chris Norman"
INDEX 01 49:26:17
CD2: The Solo Years
01.Stumblin' in 3:59
02.Don't Knock the Rock 2:09
03.Midnight Lady 4:11
04.Some Hearts Are Diamonds 3:45
05.No Arms Can Ever Hold You 3:46
06.If We Had Wings 3:49
07.Nobody's Fool 5:33
08.The Growing Years 3:33
09.Goodbye Lady Blue 3:42
10.Gypsy Queen 3:28
11.Fly Away 4:48
12.Waiting 4:33
13.Amazing 3:54
14.You Are the Light 3:43
15.Million Miles to Nowhere 4:08
16.Sun is Rising 4:17
17.Straight to My Heart 3:35
18.Losing You 3:51
19.Whisky & Water 4:16
Продолжительность: 01:15:00
Лог создания рипа
Exact Audio Copy V1.1 from 23. June 2015
EAC extraction logfile from 4. December 2018, 7:01
Chris Norman / Definitive Collection - Smokie And Solo Years CD2
Used drive : TSSTcorpDVDWBD SH-B123L Adapter: 0 ID: 4
Read mode : Secure
Utilize accurate stream : Yes
Defeat audio cache : Yes
Make use of C2 pointers : No
Read offset correction : 6
Overread into Lead-In and Lead-Out : No
Fill up missing offset samples with silence : Yes
Delete leading and trailing silent blocks : No
Null samples used in CRC calculations : Yes
Used interface : Installed external ASPI interface
Used output format : User Defined Encoder
Selected bitrate : 768 kBit/s
Quality : High
Add ID3 tag : No
Command line compressor : C:\Program Files (x86)\Exact Audio Copy\FLAC\FLAC.EXE
Additional command line options : -6 -V -T "ARTIST=%artist%" -T "TITLE=%title%" -T "ALBUM=%albumtitle%" -T "DATE=%year%" -T "TRACKNUMBER=%tracknr%" -T "GENRE=%genre%" -T "COMMENT=%comment%" -T "BAND=%albuminterpret%" -T "ALBUMARTIST=%albuminterpret%" -T "COMPOSER=%composer%" %haslyrics%--tag-from-file=LYRICS="%lyricsfile%"%haslyrics% -T "DISCNUMBER=%cdnumber%" -T "TOTALDISCS=%totalcds%" -T "TOTALTRACKS=%numtracks%" %hascover%--picture="%coverfile%"%hascover% %source% -o %dest%
TOC of the extracted CD
Track | Start | Length | Start sector | End sector
---------------------------------------------------------
1 | 0:00.00 | 3:59.15 | 0 | 17939
2 | 3:59.15 | 2:08.59 | 17940 | 27598
3 | 6:07.74 | 4:10.50 | 27599 | 46398
4 | 10:18.49 | 3:44.62 | 46399 | 63260
5 | 14:03.36 | 3:46.33 | 63261 | 80243
6 | 17:49.69 | 3:48.70 | 80244 | 97413
7 | 21:38.64 | 5:32.41 | 97414 | 122354
8 | 27:11.30 | 3:33.19 | 122355 | 138348
9 | 30:44.49 | 3:42.12 | 138349 | 155010
10 | 34:26.61 | 3:28.19 | 155011 | 170629
11 | 37:55.05 | 4:48.00 | 170630 | 192229
12 | 42:43.05 | 4:32.50 | 192230 | 212679
13 | 47:15.55 | 3:53.62 | 212680 | 230216
14 | 51:09.42 | 3:42.56 | 230217 | 246922
15 | 54:52.23 | 4:08.21 | 246923 | 265543
16 | 59:00.44 | 4:17.34 | 265544 | 284852
17 | 63:18.03 | 3:35.31 | 284853 | 301008
18 | 66:53.34 | 3:50.74 | 301009 | 318332
19 | 70:44.33 | 4:16.05 | 318333 | 337537
Range status and errors
Selected range
Filename E:\MUSIC\Chris Norman - Definitive Collection - Smokie And Solo Years CD2.wav
Peak level 97.7 %
Extraction speed 3.9 X
Range quality 100.0 %
Test CRC B53D0D6A
Copy CRC B53D0D6A
Copy OK
No errors occurred
AccurateRip summary
Track 1 not present in database
Track 2 not present in database
Track 3 not present in database
Track 4 not present in database
Track 5 not present in database
Track 6 not present in database
Track 7 not present in database
Track 8 not present in database
Track 9 not present in database
Track 10 not present in database
Track 11 not present in database
Track 12 not present in database
Track 13 not present in database
Track 14 not present in database
Track 15 not present in database
Track 16 not present in database
Track 17 not present in database
Track 18 not present in database
Track 19 not present in database
None of the tracks are present in the AccurateRip database
End of status report
==== Log checksum 416E6EB8E22F0C59DD9C7D495181C78F1CC97088C7DDAE29D45BEFC4540E4969 ====
Содержание индексной карты (.CUE)
REM GENRE Rock
REM DATE 2018
REM DISCID F9119413
REM COMMENT "ExactAudioCopy v1.1"
PERFORMER "Chris Norman"
TITLE "Definitive Collection - Smokie And Solo Years CD2"
FILE "Chris Norman - Definitive Collection - Smokie And Solo Years CD2.flac" WAVE
TRACK 01 AUDIO
TITLE "Stumblin' in"
PERFORMER "Chris Norman"
INDEX 01 00:00:00
TRACK 02 AUDIO
TITLE "Don't Knock the Rock"
PERFORMER "Chris Norman"
INDEX 00 03:57:18
INDEX 01 03:59:15
TRACK 03 AUDIO
TITLE "Midnight Lady"
PERFORMER "Chris Norman"
INDEX 00 06:06:06
INDEX 01 06:07:74
TRACK 04 AUDIO
TITLE "Some Hearts Are Diamonds"
PERFORMER "Chris Norman"
INDEX 00 10:16:57
INDEX 01 10:18:49
TRACK 05 AUDIO
TITLE "No Arms Can Ever Hold You"
PERFORMER "Chris Norman"
INDEX 00 14:01:52
INDEX 01 14:03:36
TRACK 06 AUDIO
TITLE "If We Had Wings"
PERFORMER "Chris Norman"
INDEX 00 17:48:24
INDEX 01 17:49:69
TRACK 07 AUDIO
TITLE "Nobody's Fool"
PERFORMER "Chris Norman"
INDEX 00 21:36:63
INDEX 01 21:38:64
TRACK 08 AUDIO
TITLE "The Growing Years"
PERFORMER "Chris Norman"
INDEX 00 27:09:28
INDEX 01 27:11:30
TRACK 09 AUDIO
TITLE "Goodbye Lady Blue"
PERFORMER "Chris Norman"
INDEX 00 30:42:57
INDEX 01 30:44:49
TRACK 10 AUDIO
TITLE "Gypsy Queen"
PERFORMER "Chris Norman"
INDEX 00 34:24:65
INDEX 01 34:26:61
TRACK 11 AUDIO
TITLE "Fly Away"
PERFORMER "Chris Norman"
INDEX 00 37:53:07
INDEX 01 37:55:05
TRACK 12 AUDIO
TITLE "Waiting"
PERFORMER "Chris Norman"
INDEX 00 42:41:13
INDEX 01 42:43:05
TRACK 13 AUDIO
TITLE "Amazing"
PERFORMER "Chris Norman"
INDEX 00 47:14:41
INDEX 01 47:15:55
TRACK 14 AUDIO
TITLE "You Are the Light"
PERFORMER "Chris Norman"
INDEX 00 51:08:15
INDEX 01 51:09:42
TRACK 15 AUDIO
TITLE "Million Miles to Nowhere"
PERFORMER "Chris Norman"
INDEX 00 54:50:66
INDEX 01 54:52:23
TRACK 16 AUDIO
TITLE "Sun is Rising"
PERFORMER "Chris Norman"
INDEX 00 58:58:65
INDEX 01 59:00:44
TRACK 17 AUDIO
TITLE "Straight to My Heart"
PERFORMER "Chris Norman"
INDEX 00 63:16:11
INDEX 01 63:18:03
TRACK 18 AUDIO
TITLE "Losing You"
PERFORMER "Chris Norman"
INDEX 00 66:51:41
INDEX 01 66:53:34
TRACK 19 AUDIO
TITLE "Whisky & Water"
PERFORMER "Chris Norman"
INDEX 00 70:42:41
INDEX 01 70:44:33

https://www.discogs.com/Chris-Norman-Definitive-Collection/release/12910816
[Профиль] [ЛС]
Показать сообщения:    
Ответить на тему

Текущее время: 21-Мар 05:56

Часовой пояс: UTC + 4



Вы не можете начинать темы
Вы не можете отвечать на сообщения
Вы не можете редактировать свои сообщения
Вы не можете удалять свои сообщения
Вы не можете голосовать в опросах
Вы не можете прикреплять файлы к сообщениям
Вы не можете скачивать файлы