(Italo-Disco) [CD] Mike Mareen - Greatest Hits & Remixes (2CD) - 2017, FLAC (image+.cue), lossless

Ответить на тему
 
Автор Сообщение

2v2w ®

Стаж: 6 лет 2 месяца

Сообщений: 1904

Создавать темы 04-Дек-2018 16:05

[Цитировать]

--Mike Mareen - Greatest Hits & Remixes(2CD)-- Жанр: Italo-Disco
Носитель: CD
Страна-производитель диска (релиза): Germany
Год издания: 2017
Издатель (лейбл): Night'n Day Records
Номер по каталогу: ZYX 23025-2
Страна исполнителя (группы): Germany
Аудиокодек: FLAC (*.flac)
Тип рипа: image+.cue
Битрейт аудио: lossless
Продолжительность: 02:30:52
Источник (релизер): rommar
Наличие сканов в содержимом раздачи: да
Треклист:
CD1
01. The Mike Mareen Essential Megamix (Nextanimal Edit) 8:05
02. Love Spy (7inch Version) 4:16
03. Dancing In The Dark (7inch Version) 3:31
04. Stand Up (7inch Version) 3:59
05. Agent Of Liberty (Radio Version) 4:25
06. Cecilia (7inch Version) 4:04
07. Here I Am (7inch Version) 3:55
08. Lady Ecstasy (7inch Version) 3:58
09. Don‘t Talk To The Snake (7inch Version) 4:44
10. Double Trouble (Zeppelin Remix) 4:01
11. Peace To Mindkind (7inch Version) 4:39
12. La Donna Mike‘s (Disco Version) 4:49
13. Heavy Water (Album Version) 4:10
14. Germany (Album Version) 5:45
15. Love Spy (Instrumental) 3:59
16. Agent Of Liberty (Instrumental) 4:21
Продолжительность: 01:12:11
Лог создания рипа
Exact Audio Copy V1.1 from 23. June 2015
EAC extraction logfile from 7. March 2018, 22:55
Mike Mareen / Greatest Hits & Remixes CD1
Used drive : TSSTcorpDVDWBD SH-B123L Adapter: 0 ID: 4
Read mode : Secure
Utilize accurate stream : Yes
Defeat audio cache : Yes
Make use of C2 pointers : No
Read offset correction : 6
Overread into Lead-In and Lead-Out : No
Fill up missing offset samples with silence : Yes
Delete leading and trailing silent blocks : No
Null samples used in CRC calculations : Yes
Used interface : Installed external ASPI interface
Used output format : User Defined Encoder
Selected bitrate : 768 kBit/s
Quality : High
Add ID3 tag : No
Command line compressor : C:\Program Files (x86)\Exact Audio Copy\FLAC\FLAC.EXE
Additional command line options : -6 -V -T "ARTIST=%artist%" -T "TITLE=%title%" -T "ALBUM=%albumtitle%" -T "DATE=%year%" -T "TRACKNUMBER=%tracknr%" -T "GENRE=%genre%" -T "COMMENT=%comment%" -T "BAND=%albuminterpret%" -T "ALBUMARTIST=%albuminterpret%" -T "COMPOSER=%composer%" %haslyrics%--tag-from-file=LYRICS="%lyricsfile%"%haslyrics% -T "DISCNUMBER=%cdnumber%" -T "TOTALDISCS=%totalcds%" -T "TOTALTRACKS=%numtracks%" %hascover%--picture="%coverfile%"%hascover% %source% -o %dest%
TOC of the extracted CD
Track | Start | Length | Start sector | End sector
---------------------------------------------------------
1 | 0:00.00 | 8:05.12 | 0 | 36386
2 | 8:05.12 | 4:16.32 | 36387 | 55618
3 | 12:21.44 | 3:31.04 | 55619 | 71447
4 | 15:52.48 | 3:58.46 | 71448 | 89343
5 | 19:51.19 | 4:25.26 | 89344 | 109244
6 | 24:16.45 | 4:03.47 | 109245 | 127516
7 | 28:20.17 | 3:55.20 | 127517 | 145161
8 | 32:15.37 | 3:57.70 | 145162 | 163006
9 | 36:13.32 | 4:44.28 | 163007 | 184334
10 | 40:57.60 | 4:01.02 | 184335 | 202411
11 | 44:58.62 | 4:38.48 | 202412 | 223309
12 | 49:37.35 | 4:48.54 | 223310 | 244963
13 | 54:26.14 | 4:09.41 | 244964 | 263679
14 | 58:35.55 | 5:44.60 | 263680 | 289539
15 | 64:20.40 | 3:59.01 | 289540 | 307465
16 | 68:19.41 | 4:21.11 | 307466 | 327051
Range status and errors
Selected range
Filename E:\MUSIC\Mike Mareen - Greatest Hits & Remixes CD1.wav
Peak level 98.8 %
Extraction speed 4.0 X
Range quality 100.0 %
Test CRC CAF6EC1B
Copy CRC CAF6EC1B
Copy OK
No errors occurred
AccurateRip summary
Track 1 accurately ripped (confidence 3) [08740880] (AR v2)
Track 2 accurately ripped (confidence 3) [EBCB8DD1] (AR v2)
Track 3 accurately ripped (confidence 3) [19712203] (AR v2)
Track 4 accurately ripped (confidence 3) [68D9DC17] (AR v2)
Track 5 accurately ripped (confidence 3) [BFEC63BA] (AR v2)
Track 6 accurately ripped (confidence 3) [353D862C] (AR v2)
Track 7 accurately ripped (confidence 3) [C7BC07B0] (AR v2)
Track 8 accurately ripped (confidence 3) [FA554D8C] (AR v2)
Track 9 accurately ripped (confidence 3) [CB1D0247] (AR v2)
Track 10 accurately ripped (confidence 3) [5D50317E] (AR v2)
Track 11 accurately ripped (confidence 3) [8FE00C1B] (AR v2)
Track 12 accurately ripped (confidence 3) [A33F1E52] (AR v2)
Track 13 accurately ripped (confidence 3) [7A0C9529] (AR v2)
Track 14 accurately ripped (confidence 3) [FB9BCD1F] (AR v2)
Track 15 accurately ripped (confidence 3) [1EE5A0D8] (AR v2)
Track 16 accurately ripped (confidence 3) [CAEA216E] (AR v2)
All tracks accurately ripped
End of status report
==== Log checksum 0EE14B1012FDAF943D7E5C150968101DEF2453AB27115CCA956FE51029841485 ====
Содержание индексной карты (.CUE)
REM GENRE Eurodance
REM DATE 2017
REM DISCID F6110810
REM COMMENT "ExactAudioCopy v1.1"
PERFORMER "Mike Mareen"
TITLE "Greatest Hits & Remixes CD1"
FILE "Mike Mareen - Greatest Hits & Remixes CD1.flac" WAVE
TRACK 01 AUDIO
TITLE "The Mike Mareen Essential Megamix (Nextanimal Edit)"
PERFORMER "Mike Mareen"
INDEX 01 00:00:00
TRACK 02 AUDIO
TITLE "Love Spy (7inch Version)"
PERFORMER "Mike Mareen"
INDEX 01 08:05:12
TRACK 03 AUDIO
TITLE "Dancing In The Dark (7inch Version)"
PERFORMER "Mike Mareen"
INDEX 01 12:21:44
TRACK 04 AUDIO
TITLE "Stand Up (7inch Version)"
PERFORMER "Mike Mareen"
INDEX 01 15:52:48
TRACK 05 AUDIO
TITLE "Agent Of Liberty (Radio Version)"
PERFORMER "Mike Mareen"
INDEX 01 19:51:19
TRACK 06 AUDIO
TITLE "Cecilia (7inch Version)"
PERFORMER "Mike Mareen"
INDEX 01 24:16:45
TRACK 07 AUDIO
TITLE "Here I Am (7inch Version)"
PERFORMER "Mike Mareen"
INDEX 01 28:20:17
TRACK 08 AUDIO
TITLE "Lady Ecstasy (7inch Version)"
PERFORMER "Mike Mareen"
INDEX 01 32:15:37
TRACK 09 AUDIO
TITLE "Don‘t Talk To The Snake (7inch Version)"
PERFORMER "Mike Mareen"
INDEX 01 36:13:32
TRACK 10 AUDIO
TITLE "Double Trouble (Zeppelin Remix)"
PERFORMER "Mike Mareen"
INDEX 01 40:57:60
TRACK 11 AUDIO
TITLE "Peace To Mindkind (7inch Version)"
PERFORMER "Mike Mareen"
INDEX 01 44:58:62
TRACK 12 AUDIO
TITLE "La Donna Mike‘s (Disco Version)"
PERFORMER "Mike Mareen"
INDEX 01 49:37:35
TRACK 13 AUDIO
TITLE "Heavy Water (Album Version)"
PERFORMER "Mike Mareen"
INDEX 01 54:26:14
TRACK 14 AUDIO
TITLE "Germany (Album Version)"
PERFORMER "Mike Mareen"
INDEX 01 58:35:55
TRACK 15 AUDIO
TITLE "Love Spy (Instrumental)"
PERFORMER "Mike Mareen"
INDEX 01 64:20:40
TRACK 16 AUDIO
TITLE "Agent Of Liberty (Instrumental)"
PERFORMER "Mike Mareen"
INDEX 01 68:19:41
CD2
01. Love Spy (Night Mix) 8:43
02. Dancings In The Dark (Galactica Remix) 7:05
03. Stand Up (Maxi Version) 8:18
04. Agent Of Liberty (12' Original Version) 8:53
05. Cecilia (Special DJ Remix) 6:10
06. Here I Am (Megatrain Mix) 7:36
07. Lady Ecstacy (12' Version) 5:37
08. Double Trouble (12' Zeppelin Remix) 6:38
09. Midnight Runners (12' Version) 5:58
10. Africa (Maxi Version) 6:04
11. Powerplay Mix 7:09
Продолжительность: 01:18:11
Лог создания рипа
Exact Audio Copy V1.1 from 23. June 2015
EAC extraction logfile from 7. March 2018, 23:27
Mike Mareen / Greatest Hist & Remixes CD2
Used drive : TSSTcorpDVDWBD SH-B123L Adapter: 0 ID: 4
Read mode : Secure
Utilize accurate stream : Yes
Defeat audio cache : Yes
Make use of C2 pointers : No
Read offset correction : 6
Overread into Lead-In and Lead-Out : No
Fill up missing offset samples with silence : Yes
Delete leading and trailing silent blocks : No
Null samples used in CRC calculations : Yes
Used interface : Installed external ASPI interface
Used output format : User Defined Encoder
Selected bitrate : 768 kBit/s
Quality : High
Add ID3 tag : No
Command line compressor : C:\Program Files (x86)\Exact Audio Copy\FLAC\FLAC.EXE
Additional command line options : -6 -V -T "ARTIST=%artist%" -T "TITLE=%title%" -T "ALBUM=%albumtitle%" -T "DATE=%year%" -T "TRACKNUMBER=%tracknr%" -T "GENRE=%genre%" -T "COMMENT=%comment%" -T "BAND=%albuminterpret%" -T "ALBUMARTIST=%albuminterpret%" -T "COMPOSER=%composer%" %haslyrics%--tag-from-file=LYRICS="%lyricsfile%"%haslyrics% -T "DISCNUMBER=%cdnumber%" -T "TOTALDISCS=%totalcds%" -T "TOTALTRACKS=%numtracks%" %hascover%--picture="%coverfile%"%hascover% %source% -o %dest%
TOC of the extracted CD
Track | Start | Length | Start sector | End sector
---------------------------------------------------------
1 | 0:00.00 | 8:42.40 | 0 | 39189
2 | 8:42.40 | 7:04.53 | 39190 | 71042
3 | 15:47.18 | 8:18.26 | 71043 | 108418
4 | 24:05.44 | 8:52.64 | 108419 | 148382
5 | 32:58.33 | 6:09.57 | 148383 | 176114
6 | 39:08.15 | 7:35.54 | 176115 | 210293
7 | 46:43.69 | 5:37.37 | 210294 | 235605
8 | 52:21.31 | 6:38.32 | 235606 | 265487
9 | 58:59.63 | 5:58.30 | 265488 | 292367
10 | 64:58.18 | 6:04.04 | 292368 | 319671
11 | 71:02.22 | 7:08.58 | 319672 | 351829
Range status and errors
Selected range
Filename E:\MUSIC\Mike Mareen - Greatest Hist & Remixes CD2.wav
Peak level 98.8 %
Extraction speed 4.0 X
Range quality 100.0 %
Test CRC 164B5221
Copy CRC 164B5221
Copy OK
No errors occurred
AccurateRip summary
Track 1 accurately ripped (confidence 3) [A44A71E4] (AR v2)
Track 2 accurately ripped (confidence 3) [5FBBBDD6] (AR v2)
Track 3 accurately ripped (confidence 3) [5BF1E4EC] (AR v2)
Track 4 accurately ripped (confidence 3) [7B793F99] (AR v2)
Track 5 accurately ripped (confidence 3) [4D054E06] (AR v2)
Track 6 accurately ripped (confidence 3) [A84C8A58] (AR v2)
Track 7 accurately ripped (confidence 3) [CD2DD81C] (AR v2)
Track 8 accurately ripped (confidence 3) [95407806] (AR v2)
Track 9 accurately ripped (confidence 3) [B30A09D9] (AR v2)
Track 10 accurately ripped (confidence 3) [134200F7] (AR v2)
Track 11 accurately ripped (confidence 3) [488FF717] (AR v2)
All tracks accurately ripped
End of status report
==== Log checksum D644DABC2EC3D61A3FB4480EE1D60661CCBD7B217ECEE013757297068F1FA16D ====
Содержание индексной карты (.CUE)
REM GENRE Pop
REM DATE 2017
REM DISCID 9212530B
REM COMMENT "ExactAudioCopy v1.1"
PERFORMER "Mike Mareen"
TITLE "Greatest Hist & Remixes CD2"
FILE "Mike Mareen - Greatest Hist & Remixes CD2.flac" WAVE
TRACK 01 AUDIO
TITLE "Love Spy (Night Mix)"
PERFORMER "Mike Mareen"
INDEX 01 00:00:00
TRACK 02 AUDIO
TITLE "Dancings In The Dark (Galactica Remix)"
PERFORMER "Mike Mareen"
INDEX 01 08:42:40
TRACK 03 AUDIO
TITLE "Stand Up (Maxi Version)"
PERFORMER "Mike Mareen"
INDEX 01 15:47:18
TRACK 04 AUDIO
TITLE "Agent Of Liberty (12' Original Version)"
PERFORMER "Mike Mareen"
INDEX 01 24:05:44
TRACK 05 AUDIO
TITLE "Cecilia (Special DJ Remix)"
PERFORMER "Mike Mareen"
INDEX 01 32:58:33
TRACK 06 AUDIO
TITLE "Here I Am (Megatrain Mix)"
PERFORMER "Mike Mareen"
INDEX 01 39:08:15
TRACK 07 AUDIO
TITLE "Lady Ecstacy (12' Version)"
PERFORMER "Mike Mareen"
INDEX 01 46:43:69
TRACK 08 AUDIO
TITLE "Double Trouble (12' Zeppelin Remix)"
PERFORMER "Mike Mareen"
INDEX 01 52:21:31
TRACK 09 AUDIO
TITLE "Midnight Runners (12' Version)"
PERFORMER "Mike Mareen"
INDEX 01 58:59:63
TRACK 10 AUDIO
TITLE "Africa (Maxi Version)"
PERFORMER "Mike Mareen"
INDEX 01 64:58:18
TRACK 11 AUDIO
TITLE "Powerplay Mix"
PERFORMER "Mike Mareen"
INDEX 01 71:02:22
Загрузка...
[Профиль] [ЛС]
Показать сообщения:    
Ответить на тему

Текущее время: 11-Дек 21:32

Часовой пояс: UTC + 4



Вы не можете начинать темы
Вы не можете отвечать на сообщения
Вы не можете редактировать свои сообщения
Вы не можете удалять свои сообщения
Вы не можете голосовать в опросах
Вы не можете прикреплять файлы к сообщениям
Вы не можете скачивать файлы