(Disco) [CD] VA - Romantic Collection Disco (2CD) - 2002, FLAC (image+.cue), lossless

Ответить на тему
 
Автор Сообщение

2v2w ®

Стаж: 6 лет 1 месяц

Сообщений: 1902

Создавать темы 16-Окт-2018 21:44

[Цитировать]

--Romantic Collection Disco-- Жанр: Disco
Носитель: CD
Страна-производитель диска (релиза): Made in RU.
Год издания: 2002
Издатель (лейбл): Квадро Диск
Номер по каталогу: CD 1201 , CD 1202
Аудиокодек: FLAC (*.flac)
Тип рипа: image+.cue
Битрейт аудио: lossless
Продолжительность: 02:27:48
Источник (релизер): Lossless-flac.com
Наличие сканов в содержимом раздачи: да
Треклист:
CD 1
01. Lady In Red (3:51)
02. Stumblin' In (3:55)
03. Words (3:25)
04. Money, Money (3:07)
05. Chery Chery Lady (3:46)
06. Cara Mia (2:58)
07. Touch By Touch (2:59)
08. Ten O'Clock Postman (3:17)
09. Only You (3:41)
10. Voyage (4:22)
11. Hands Up (4:45)
12. You're A Woman (3:56)
13. Sunny (3:57)
14. Midnight Dancer (3:39)
15. It's a Sin (4:02)
16. Camboja (3:14)
17. One Way Ticket (3:35)
18. Boys (3:54)
19. Sweet Dreams (4:21)
20. Pin-Occhio (3:11)
Продолжительность: 01:13:55
Лог создания рипа
Exact Audio Copy V1.0 beta 3 from 29. August 2011
EAC extraction logfile from 8. March 2014, 19:56
Romantic Collection / Disco (CD 1)
Used drive : PIONEER DVD-RW DVR-118L Adapter: 0 ID: 0
Read mode : Secure
Utilize accurate stream : Yes
Defeat audio cache : Yes
Make use of C2 pointers : No
Read offset correction : 6
Overread into Lead-In and Lead-Out : No
Fill up missing offset samples with silence : Yes
Delete leading and trailing silent blocks : No
Null samples used in CRC calculations : Yes
Used interface : Installed external ASPI interface
Used output format : Internal WAV Routines
Sample format : 44.100 Hz; 16 Bit; Stereo
TOC of the extracted CD
Track | Start | Length | Start sector | End sector
---------------------------------------------------------
1 | 0:00.00 | 3:50.56 | 0 | 17305
2 | 3:50.56 | 3:55.35 | 17306 | 34965
3 | 7:46.16 | 3:25.23 | 34966 | 50363
4 | 11:11.39 | 3:06.48 | 50364 | 64361
5 | 14:18.12 | 3:45.47 | 64362 | 81283
6 | 18:03.59 | 2:57.61 | 81284 | 94619
7 | 21:01.45 | 2:59.01 | 94620 | 108045
8 | 24:00.46 | 3:17.11 | 108046 | 122831
9 | 27:17.57 | 3:41.35 | 122832 | 139441
10 | 30:59.17 | 4:21.61 | 139442 | 159077
11 | 35:21.03 | 4:44.72 | 159078 | 180449
12 | 40:06.00 | 3:55.60 | 180450 | 198134
13 | 44:01.60 | 3:57.35 | 198135 | 215944
14 | 47:59.20 | 3:38.74 | 215945 | 232368
15 | 51:38.19 | 4:01.52 | 232369 | 250495
16 | 55:39.71 | 3:14.17 | 250496 | 265062
17 | 58:54.13 | 3:34.61 | 265063 | 281173
18 | 62:28.74 | 3:53.72 | 281174 | 298720
19 | 66:22.71 | 4:20.67 | 298721 | 318287
20 | 70:43.63 | 3:11.00 | 318288 | 332612
Range status and errors
Selected range
Filename D:\music\Lossless-flac.com_Rip by moote\Romantic Collection - Disco (CD 1).wav
Peak level 100.0 %
Extraction speed 2.2 X
Range quality 99.9 %
Test CRC 3CB64C49
Copy CRC 3CB64C49
Copy OK
No errors occurred
AccurateRip summary
Track 1 cannot be verified as accurate (confidence 1) [AFDD8D6F], AccurateRip returned [BEE89158] (AR v2)
Track 2 cannot be verified as accurate (confidence 1) [AE003E65], AccurateRip returned [9A2DF63A] (AR v2)
Track 3 cannot be verified as accurate (confidence 1) [5F712F82], AccurateRip returned [80A97F0C] (AR v2)
Track 4 cannot be verified as accurate (confidence 1) [016043B4], AccurateRip returned [BC0C19C2] (AR v2)
Track 5 cannot be verified as accurate (confidence 1) [66B51A64], AccurateRip returned [93C6B799] (AR v2)
Track 6 cannot be verified as accurate (confidence 1) [4B0C4BA6], AccurateRip returned [7170460B] (AR v2)
Track 7 cannot be verified as accurate (confidence 1) [5D567EAD], AccurateRip returned [D68F6040] (AR v2)
Track 8 cannot be verified as accurate (confidence 1) [E09BBA70], AccurateRip returned [BCB5C74A] (AR v2)
Track 9 cannot be verified as accurate (confidence 1) [2A20F285], AccurateRip returned [2EC81E44] (AR v2)
Track 10 cannot be verified as accurate (confidence 1) [FE988FDC], AccurateRip returned [509442A9] (AR v2)
Track 11 cannot be verified as accurate (confidence 1) [FF7ED6F8], AccurateRip returned [E59F8E17] (AR v2)
Track 12 cannot be verified as accurate (confidence 1) [9E2EBCC1], AccurateRip returned [549C6B15] (AR v2)
Track 13 cannot be verified as accurate (confidence 1) [940EF3A5], AccurateRip returned [96C1D7DD] (AR v2)
Track 14 cannot be verified as accurate (confidence 1) [F93F4AF7], AccurateRip returned [24CF89E8] (AR v2)
Track 15 cannot be verified as accurate (confidence 1) [F89C3EF9], AccurateRip returned [203FAE39] (AR v2)
Track 16 cannot be verified as accurate (confidence 1) [F92518BA], AccurateRip returned [9394FDEC] (AR v2)
Track 17 cannot be verified as accurate (confidence 1) [4558F857], AccurateRip returned [940CCDA2] (AR v2)
Track 18 cannot be verified as accurate (confidence 1) [CD336C76], AccurateRip returned [4AF03D33] (AR v2)
Track 19 cannot be verified as accurate (confidence 1) [7314873A], AccurateRip returned [6BA47125] (AR v2)
Track 20 cannot be verified as accurate (confidence 1) [76581146], AccurateRip returned [64EDE88C] (AR v2)
No tracks could be verified as accurate
You may have a different pressing from the one(s) in the database
End of status report
==== Log checksum A7B76D3B5B2C773EBA4375D79D5348B26E44D9FE18FC467390E86788817A6900 ====
Содержание индексной карты (.CUE):
REM GENRE Retro
REM DATE 2002
REM DISCID 10115214
REM COMMENT "ExactAudioCopy v1.0b3"
PERFORMER "Romantic Collection"
TITLE "Disco (CD 1)"
FILE "Romantic Collection - Disco (CD 1).flac" WAVE
TRACK 01 AUDIO
TITLE "Lady In Red"
PERFORMER "Chris De Burg"
INDEX 01 00:00:00
TRACK 02 AUDIO
TITLE "Stumblin' In"
PERFORMER "Chris Norman & Suzie quatro"
INDEX 00 03:49:57
INDEX 01 03:50:56
TRACK 03 AUDIO
TITLE "Words"
PERFORMER "F.R. David"
INDEX 00 07:45:55
INDEX 01 07:46:16
TRACK 04 AUDIO
TITLE "Money, Money"
PERFORMER "Abba"
INDEX 00 11:11:04
INDEX 01 11:11:39
TRACK 05 AUDIO
TITLE "Chery Chery Lady"
PERFORMER "Modern Talking"
INDEX 00 14:17:52
INDEX 01 14:18:12
TRACK 06 AUDIO
TITLE "Cara Mia"
PERFORMER "Baccara"
INDEX 00 18:03:23
INDEX 01 18:03:59
TRACK 07 AUDIO
TITLE "Touch By Touch"
PERFORMER "Joy"
INDEX 00 21:01:10
INDEX 01 21:01:45
TRACK 08 AUDIO
TITLE "Ten O'Clock Postman"
PERFORMER "Secret Service"
INDEX 00 23:59:47
INDEX 01 24:00:46
TRACK 09 AUDIO
TITLE "Only You"
PERFORMER "Savage"
INDEX 00 27:17:21
INDEX 01 27:17:57
TRACK 10 AUDIO
TITLE "Voyage"
PERFORMER "Desireless"
INDEX 00 30:58:56
INDEX 01 30:59:17
TRACK 11 AUDIO
TITLE "Hands Up"
PERFORMER "Ottawan"
INDEX 00 35:20:42
INDEX 01 35:21:03
TRACK 12 AUDIO
TITLE "You're A Woman"
PERFORMER "Bad Boys Blue"
INDEX 00 40:05:39
INDEX 01 40:06:00
TRACK 13 AUDIO
TITLE "Sunny"
PERFORMER "Boney M"
INDEX 00 44:01:24
INDEX 01 44:01:60
TRACK 14 AUDIO
TITLE "Midnight Dancer"
PERFORMER "Arabesque"
INDEX 00 47:58:59
INDEX 01 47:59:20
TRACK 15 AUDIO
TITLE "It's a Sin"
PERFORMER "Pet Shop Boys"
INDEX 00 51:37:58
INDEX 01 51:38:19
TRACK 16 AUDIO
TITLE "Camboja"
PERFORMER "Kim Wild"
INDEX 00 55:38:72
INDEX 01 55:39:71
TRACK 17 AUDIO
TITLE "One Way Ticket"
PERFORMER "Eruption"
INDEX 00 58:53:14
INDEX 01 58:54:13
TRACK 18 AUDIO
TITLE "Boys"
PERFORMER "Sabrina"
INDEX 00 62:28:38
INDEX 01 62:28:74
TRACK 19 AUDIO
TITLE "Sweet Dreams"
PERFORMER "Eurithmics"
INDEX 00 66:22:35
INDEX 01 66:22:71
TRACK 20 AUDIO
TITLE "Pin-Occhio"
PERFORMER "Pin-Occhio"
INDEX 00 70:42:64
INDEX 01 70:43:63
CD 2
01. Just Blue (3:53)
02. Little Russian (3:53)
03. Marrakesh (4:15)
04. Yellow River (2:31)
05. Le Chemin de Papa (2:28)
06. Do It Do It Again (2:42)
07. Amor (3:19)
08. Hafanana (2:53)
09. Dancando Lambada (3:24)
10. Los Lobos with A. Banderas/ Cancion de Mariachi (2:05)
11. To Do Pasara Maria (3:13)
12. Pasadena (3:32)
13. Nah Nah Nah (2:54)
14. Felicita (3:14)
15. I'Italiano (3:54)
16. Suzana (4:47)
17. Life Is Life (4:04)
18. Don't Worry, Be Happy (3:55)
19. Those Were the Days (4:58)
20. Lady, Lady (3:42)
21. Lady in Red (4:06)
Продолжительность: 01:13:43
Лог создания рипа
Exact Audio Copy V1.0 beta 3 from 29. August 2011
EAC extraction logfile from 8. March 2014, 21:16
Various Artists / Romantic Collection: Disco, CD2
Used drive : PIONEER DVD-RW DVR-118L Adapter: 0 ID: 0
Read mode : Secure
Utilize accurate stream : Yes
Defeat audio cache : Yes
Make use of C2 pointers : No
Read offset correction : 6
Overread into Lead-In and Lead-Out : No
Fill up missing offset samples with silence : Yes
Delete leading and trailing silent blocks : No
Null samples used in CRC calculations : Yes
Used interface : Installed external ASPI interface
Used output format : Internal WAV Routines
Sample format : 44.100 Hz; 16 Bit; Stereo
TOC of the extracted CD
Track | Start | Length | Start sector | End sector
---------------------------------------------------------
1 | 0:00.00 | 3:53.19 | 0 | 17493
2 | 3:53.19 | 3:53.15 | 17494 | 34983
3 | 7:46.34 | 4:14.74 | 34984 | 54107
4 | 12:01.33 | 2:30.61 | 54108 | 65418
5 | 14:32.19 | 2:27.61 | 65419 | 76504
6 | 17:00.05 | 2:41.60 | 76505 | 88639
7 | 19:41.65 | 3:19.09 | 88640 | 103573
8 | 23:00.74 | 2:53.10 | 103574 | 116558
9 | 25:54.09 | 3:23.48 | 116559 | 131831
10 | 29:17.57 | 2:04.49 | 131832 | 141180
11 | 31:22.31 | 3:12.73 | 141181 | 155653
12 | 34:35.29 | 3:31.74 | 155654 | 171552
13 | 38:07.28 | 2:53.48 | 171553 | 184575
14 | 41:01.01 | 3:13.74 | 184576 | 199124
15 | 44:15.00 | 3:54.11 | 199125 | 216685
16 | 48:09.11 | 4:47.35 | 216686 | 238245
17 | 52:56.46 | 4:04.36 | 238246 | 256581
18 | 57:01.07 | 3:54.68 | 256582 | 274199
19 | 60:56.00 | 4:57.73 | 274200 | 296547
20 | 65:53.73 | 3:42.18 | 296548 | 313215
21 | 69:36.16 | 4:06.24 | 313216 | 331689
Range status and errors
Selected range
Filename D:\music\Lossless-flac.com_Rip by moote\Various Artists - Romantic Collection- Disco, CD2.wav
Peak level 96.4 %
Extraction speed 2.2 X
Range quality 100.0 %
Test CRC 56A0C13A
Copy CRC 56A0C13A
Copy OK
No errors occurred
AccurateRip summary
Track 1 cannot be verified as accurate (confidence 1) [6A942461], AccurateRip returned [28134CA9] (AR v2)
Track 2 cannot be verified as accurate (confidence 1) [1280D766], AccurateRip returned [8F4A7A50] (AR v2)
Track 3 cannot be verified as accurate (confidence 1) [08121C4E], AccurateRip returned [7F7C5252] (AR v2)
Track 4 cannot be verified as accurate (confidence 1) [ACB465B2], AccurateRip returned [2182CAA1] (AR v2)
Track 5 cannot be verified as accurate (confidence 1) [5960214B], AccurateRip returned [71829ADA] (AR v2)
Track 6 cannot be verified as accurate (confidence 1) [0378C6C9], AccurateRip returned [CD717765] (AR v2)
Track 7 cannot be verified as accurate (confidence 1) [57584EC3], AccurateRip returned [DD1F92F0] (AR v2)
Track 8 cannot be verified as accurate (confidence 1) [832793F8], AccurateRip returned [7B2E44B0] (AR v2)
Track 9 cannot be verified as accurate (confidence 1) [3EC5814D], AccurateRip returned [F6BE8C47] (AR v2)
Track 10 cannot be verified as accurate (confidence 1) [4832D73D], AccurateRip returned [E065AA4F] (AR v2)
Track 11 cannot be verified as accurate (confidence 1) [CC98EA69], AccurateRip returned [59928CB5] (AR v2)
Track 12 cannot be verified as accurate (confidence 1) [1D31D4BE], AccurateRip returned [AACB967E] (AR v2)
Track 13 cannot be verified as accurate (confidence 1) [DAC32BDB], AccurateRip returned [79082C00] (AR v2)
Track 14 cannot be verified as accurate (confidence 1) [32AE4EC3], AccurateRip returned [0687ECF0] (AR v2)
Track 15 cannot be verified as accurate (confidence 1) [A19D36C9], AccurateRip returned [A457EC8F] (AR v2)
Track 16 cannot be verified as accurate (confidence 1) [3C049906], AccurateRip returned [E8F1C930] (AR v2)
Track 17 cannot be verified as accurate (confidence 1) [F6CCF499], AccurateRip returned [6AF44A29] (AR v2)
Track 18 cannot be verified as accurate (confidence 1) [36688498], AccurateRip returned [92F1EBCD] (AR v2)
Track 19 cannot be verified as accurate (confidence 1) [6507ADFB], AccurateRip returned [BBFF712F] (AR v2)
Track 20 cannot be verified as accurate (confidence 1) [FAD647E3], AccurateRip returned [27D5D5D1] (AR v2)
Track 21 cannot be verified as accurate (confidence 1) [63A52147], AccurateRip returned [5D240E09] (AR v2)
No tracks could be verified as accurate
You may have a different pressing from the one(s) in the database
End of status report
==== Log checksum B21B7EA0DFF5DE12A6F77D1BF3C336F2A404FDAB2D74D3EC0751F33C540BC8EE ====
Содержание индексной карты (.CUE):
REM GENRE Misc
REM DATE 1995
REM DISCID 55114615
REM COMMENT "ExactAudioCopy v1.0b3"
PERFORMER "Various Artists"
TITLE "Romantic Collection: Disco, CD2"
FILE "Various Artists - Romantic Collection- Disco, CD2.flac" WAVE
TRACK 01 AUDIO
TITLE "Just Blue"
PERFORMER "Space"
INDEX 01 00:00:00
TRACK 02 AUDIO
TITLE "Little Russian"
PERFORMER "Mr. Zivago"
INDEX 00 03:52:21
INDEX 01 03:53:19
TRACK 03 AUDIO
TITLE "Marrakesh"
PERFORMER "GRB"
INDEX 00 07:45:35
INDEX 01 07:46:34
TRACK 04 AUDIO
TITLE "Yellow River"
PERFORMER "Christie"
INDEX 00 12:00:35
INDEX 01 12:01:33
TRACK 05 AUDIO
TITLE "Le Chemin de Papa"
PERFORMER "Joe Dassin"
INDEX 00 14:31:58
INDEX 01 14:32:19
TRACK 06 AUDIO
TITLE "Do It Do It Again"
PERFORMER "Rafaella Carra"
INDEX 00 16:59:45
INDEX 01 17:00:05
TRACK 07 AUDIO
TITLE "Amor"
PERFORMER "Julio Iglesias"
INDEX 00 19:41:29
INDEX 01 19:41:65
TRACK 08 AUDIO
TITLE "Hafanana"
PERFORMER "Afric Simone"
INDEX 00 23:00:38
INDEX 01 23:00:74
TRACK 09 AUDIO
TITLE "Dancando Lambada"
PERFORMER "Kaoma"
INDEX 00 25:53:48
INDEX 01 25:54:09
TRACK 10 AUDIO
TITLE "Los Lobos with A. Banderas/ Cancion de Mariachi"
PERFORMER "Various Artists"
INDEX 00 29:17:21
INDEX 01 29:17:57
TRACK 11 AUDIO
TITLE "To Do Pasara Maria"
PERFORMER "Afric Simone"
INDEX 00 31:21:70
INDEX 01 31:22:31
TRACK 12 AUDIO
TITLE "Pasadena"
PERFORMER "Maywood"
INDEX 00 34:34:68
INDEX 01 34:35:29
TRACK 13 AUDIO
TITLE "Nah Nah Nah"
PERFORMER "Vaya Con Dios"
INDEX 00 38:06:67
INDEX 01 38:07:28
TRACK 14 AUDIO
TITLE "Felicita"
PERFORMER "Al Bano & Romino Power"
INDEX 00 41:00:40
INDEX 01 41:01:01
TRACK 15 AUDIO
TITLE "I'Italiano"
PERFORMER "Toto Cutugno"
INDEX 00 44:14:39
INDEX 01 44:15:00
TRACK 16 AUDIO
TITLE "Suzana"
PERFORMER "Art Company"
INDEX 00 48:08:50
INDEX 01 48:09:11
TRACK 17 AUDIO
TITLE "Life Is Life"
PERFORMER "Opus"
INDEX 00 52:56:10
INDEX 01 52:56:46
TRACK 18 AUDIO
TITLE "Don't Worry, Be Happy"
PERFORMER "Bobby McFerryn"
INDEX 00 57:00:46
INDEX 01 57:01:07
TRACK 19 AUDIO
TITLE "Those Were the Days"
PERFORMER "Mary Hopkins"
INDEX 00 60:55:01
INDEX 01 60:56:00
TRACK 20 AUDIO
TITLE "Lady, Lady"
PERFORMER "Joe Esposito"
INDEX 00 65:53:37
INDEX 01 65:53:73
TRACK 21 AUDIO
TITLE "Lady in Red"
PERFORMER "Symphonic Rock Orchestra"
INDEX 00 69:35:17
INDEX 01 69:36:16
Загрузка...
[Профиль] [ЛС]

2v2w ®

Стаж: 6 лет 1 месяц

Сообщений: 1902

Создавать темы 16-Окт-2018 22:16 (спустя 32 минуты)

[Цитировать]

Торент перезалит по техническим причинам
[Профиль] [ЛС]
Показать сообщения:    
Ответить на тему

Текущее время: 18-Ноя 18:34

Часовой пояс: UTC + 4



Вы не можете начинать темы
Вы не можете отвечать на сообщения
Вы не можете редактировать свои сообщения
Вы не можете удалять свои сообщения
Вы не можете голосовать в опросах
Вы не можете прикреплять файлы к сообщениям
Вы не можете скачивать файлы