(Шансон) [CD] Гарик Кричевский - Пальчики - 2000, FLAC (image+.cue), lossless

Ответить на тему
 
Автор Сообщение

2v2w ®

Стаж: 6 лет 1 месяц

Сообщений: 1902

Создавать темы 16-Окт-2018 19:59

[Цитировать]

--Гарик Кричевский - Пальчики-- Жанр: Шансон
Носитель: CD
Страна-производитель диска (релиза): Россия
Год издания: 2000
Издатель (лейбл): S.T.M.Records
Номер по каталогу: CD-035
Аудиокодек: FLAC (*.flac)
Тип рипа: image+.cue
Битрейт аудио: lossless
Продолжительность: 00:51:20
Источник (релизер): eloychik
Наличие сканов в содержимом раздачи: да
Треклист:

01. Весна
02. Паруса
03. Пальчики
04. Черешня
05. Автобан
06. День и ночь
07. Таня - Джан
08. На нарах
09. Чужая
10. Организмы
11. Падает снег
12. Горячая точка
13. Лето кончится
Лог создания рипа
Exact Audio Copy V1.3 from 2. September 2016
Отчёт EAC об извлечении, выполненном 9. октября 2018, 21:28
Гарик Кричевский / Пальчики
Дисковод: ASUS DRW-24F1MT Adapter: 1 ID: 0
Режим чтения : Достоверность
Использование точного потока : Да
Отключение кэша аудио : Да
Использование указателей C2 : Нет
Коррекция смещения при чтении : 6
Способность читать области Lead-in и Lead-out : Нет
Заполнение пропущенных сэмплов тишиной : Да
Удаление блоков с тишиной в начале и конце : Нет
При вычислениях CRC использовались нулевые сэмплы : Да
Интерфейс : Встроенный Win32-интерфейс для Win NT/2000
Выходной формат : Пользовательский кодировщик
Выбранный битрейт : 128 kBit/s
Качество : Высокий
Добавление ID3-тега : Нет
Утилита сжатия : C:\Program Files (x86)\Exact Audio Copy\Flac\flac.exe
Дополнительные параметры : -V -8 -T "Date=%year%" -T "Genre=%genre%" %source%
TOC извлечённого CD
Трек | Старт | Длительность | Начальный сектор | Конечный сектор
---------------------------------------------------------------------
1 | 0:00.00 | 4:43.74 | 0 | 21298
2 | 4:43.74 | 4:29.74 | 21299 | 41547
3 | 9:13.73 | 4:31.17 | 41548 | 61889
4 | 13:45.15 | 4:30.34 | 61890 | 82173
5 | 18:15.49 | 3:51.47 | 82174 | 99545
6 | 22:07.21 | 4:04.43 | 99546 | 117888
7 | 26:11.64 | 3:42.66 | 117889 | 134604
8 | 29:54.55 | 3:10.72 | 134605 | 148926
9 | 33:05.52 | 4:18.28 | 148927 | 168304
10 | 37:24.05 | 2:44.60 | 168305 | 180664
11 | 40:08.65 | 3:19.18 | 180665 | 195607
12 | 43:28.08 | 3:39.27 | 195608 | 212059
13 | 47:07.35 | 4:12.44 | 212060 | 231003
Характеристики диапазона извлечения и сообщения об ошибках
Выбранный диапазон
Имя файла E:\Раздачи\NNMClub-eloychik ®\Гарик Кричевский - Пальчики [nnm-club.me]\Гарик Кричевский - Пальчики.wav
Пиковый уровень 100.0 %
Скорость извлечения 6.4 X
Качество диапазона 99.9 %
CRC теста E95AE0AF
CRC копии E95AE0AF
Копирование... OK
Ошибок не произошло
AccurateRip: сводка
Трек 1 : извлечено точно (доверие 1) [2C4526F8] (AR v2)
Трек 2 : извлечено точно (доверие 1) [C8B6037D] (AR v2)
Трек 3 : извлечено точно (доверие 1) [6BC6B068] (AR v2)
Трек 4 : извлечено точно (доверие 1) [8D1B6CE1] (AR v2)
Трек 5 : извлечено точно (доверие 1) [D343284A] (AR v2)
Трек 6 : извлечено точно (доверие 1) [496C8B92] (AR v2)
Трек 7 : извлечено точно (доверие 1) [7F5A5AFD] (AR v2)
Трек 8 : извлечено точно (доверие 1) [3D4ADE78] (AR v2)
Трек 9 : извлечено точно (доверие 1) [26A21D4D] (AR v2)
Трек 10 : извлечено точно (доверие 1) [0CBE188E] (AR v2)
Трек 11 : извлечено точно (доверие 1) [FFEBB24D] (AR v2)
Трек 12 : извлечено точно (доверие 1) [463C16F2] (AR v2)
Трек 13 : извлечено точно (доверие 1) [63A95656] (AR v2)
Все треки извлечены точно
Конец отчёта
==== Контрольная сумма отчёта EA2A59E7A034833EAFE59667339A8E83558F374E31EA3CE0B329C26CCBC19CA8 ====
Содержание индексной карты (.CUE)
REM GENRE Chanson
REM DATE 2000
REM DISCID C40C080D
REM COMMENT "ExactAudioCopy v1.3"
PERFORMER "Гарик Кричевский"
TITLE "Пальчики"
REM COMPOSER ""
FILE "Гарик Кричевский - Пальчики.flac" WAVE
TRACK 01 AUDIO
TITLE "Весна"
PERFORMER "Гарик Кричевский"
REM COMPOSER ""
FLAGS DCP
INDEX 01 00:00:00
TRACK 02 AUDIO
TITLE "Паруса"
PERFORMER "Гарик Кричевский"
REM COMPOSER ""
FLAGS DCP
INDEX 01 04:43:74
TRACK 03 AUDIO
TITLE "Пальчики"
PERFORMER "Гарик Кричевский"
REM COMPOSER ""
FLAGS DCP
INDEX 01 09:13:73
TRACK 04 AUDIO
TITLE "Черешня"
PERFORMER "Гарик Кричевский"
REM COMPOSER ""
FLAGS DCP
INDEX 01 13:45:15
TRACK 05 AUDIO
TITLE "Автобан"
PERFORMER "Гарик Кричевский"
REM COMPOSER ""
FLAGS DCP
INDEX 01 18:15:49
TRACK 06 AUDIO
TITLE "День и ночь"
PERFORMER "Гарик Кричевский"
REM COMPOSER ""
FLAGS DCP
INDEX 01 22:07:21
TRACK 07 AUDIO
TITLE "Таня-Джан"
PERFORMER "Гарик Кричевский"
REM COMPOSER ""
FLAGS DCP
INDEX 01 26:11:64
TRACK 08 AUDIO
TITLE "На нарах"
PERFORMER "Гарик Кричевский"
REM COMPOSER ""
FLAGS DCP
INDEX 01 29:54:55
TRACK 09 AUDIO
TITLE "Чужая"
PERFORMER "Гарик Кричевский"
REM COMPOSER ""
FLAGS DCP
INDEX 01 33:05:52
TRACK 10 AUDIO
TITLE "Организмы"
PERFORMER "Гарик Кричевский"
REM COMPOSER ""
FLAGS DCP
INDEX 01 37:24:05
TRACK 11 AUDIO
TITLE "Падает снег"
PERFORMER "Гарик Кричевский"
REM COMPOSER ""
FLAGS DCP
INDEX 01 40:08:65
TRACK 12 AUDIO
TITLE "Горячая точка"
PERFORMER "Гарик Кричевский"
REM COMPOSER ""
FLAGS DCP
INDEX 01 43:28:08
TRACK 13 AUDIO
TITLE "Лето кончится"
PERFORMER "Гарик Кричевский"
REM COMPOSER ""
FLAGS DCP
INDEX 01 47:07:35
Лог проверки качества
-----------------------
DON'T MODIFY THIS FILE
-----------------------
PERFORMER: auCDtect Task Manager, ver. 1.6.0 RC1 build 1.6.0.1
Copyright (c) 2008-2010 y-soft. All rights reserved
http://y-soft.org
ANALYZER: auCDtect: CD records authenticity detector, version 0.8.2
Copyright (c) 2004 Oleg Berngardt. All rights reserved.
Copyright (c) 2004 Alexander Djourik. All rights reserved.
FILE: Гарик Кричевский - Пальчики.flac
Size: 352356454 Hash: B6375D0928B73AFFABC2C2BC3AAA74BD Accuracy: -m0
Conclusion: CDDA 100%
Signature: 50BF124B75FEBBC5D9479C0D9FB4665C485FD3A4

https://www.discogs.com/Гарик-Кричевский-Пальчики/release/3560849
За материал особая благодарность eloychik
Загрузка...
[Профиль] [ЛС]
Показать сообщения:    
Ответить на тему

Текущее время: 17-Ноя 19:20

Часовой пояс: UTC + 4



Вы не можете начинать темы
Вы не можете отвечать на сообщения
Вы не можете редактировать свои сообщения
Вы не можете удалять свои сообщения
Вы не можете голосовать в опросах
Вы не можете прикреплять файлы к сообщениям
Вы не можете скачивать файлы