(Melodic Hard Rock) Johnny Gioeli - Deen Castronovo - Set The World On Fire - 2018 [FLAC, image +.cue, lossless]

Ответить на тему
 
Автор Сообщение

sergej644 ®

Стаж: 6 лет 3 месяца

Сообщений: 990

Создавать темы 13-Авг-2018 20:10

[Цитировать]

-Johnny Gioeli - Deen Castronovo - Set The World On Fire--
Год издания: 2018
Страна: Germany
Жанр: Melodic Hard Rock
Продолжительность: 00:51:00-Лейбл издания: King Records
Страна-выпуска диска: Japan
Номер по каталогу: KICP 1928-Формат: FLAC
Битрейт аудио: Lossless
Тип рипа: image +.cue
Наличие сканов в содержимом раздачи: да
-
Трэклист

01. Set The World On Fire (3:31)
02. Through (4:06)
03. Who I Am (3:00)
04. Fall Like An Angel (3:37)
05. It’s All About You (4:33)
06. Need You Now (3:54)
07. Ride Of Your Life (3:53)
08. Mother (3:54)
09. Walk With Me (3:50)
10. Run For Your Life (4:53)
11. Remember Me (4:22)
12. Let Me Out (4:25)
13. Who I Am (Acoustic Version) (3:01)
-
Лог создания рипа
Exact Audio Copy V1.1 from 23. June 2015
EAC extraction logfile from 10. August 2018, 22:33
Johnny Gioeli - Deen Castronovo / Set The World On Fire (KICP 1928)
Used drive  : TSSTcorpDVDWBD SH-B123L   Adapter: 0  ID: 4
Read mode               : Secure
Utilize accurate stream : Yes
Defeat audio cache      : Yes
Make use of C2 pointers : No
Read offset correction                      : 6
Overread into Lead-In and Lead-Out          : No
Fill up missing offset samples with silence : Yes
Delete leading and trailing silent blocks   : No
Null samples used in CRC calculations       : Yes
Used interface                              : Installed external ASPI interface
Used output format              : User Defined Encoder
Selected bitrate                : 768 kBit/s
Quality                         : High
Add ID3 tag                     : No
Command line compressor         : C:\Program Files (x86)\Exact Audio Copy\FLAC\FLAC.EXE
Additional command line options : -6 -V -T "ARTIST=%artist%" -T "TITLE=%title%" -T "ALBUM=%albumtitle%" -T "DATE=%year%" -T "TRACKNUMBER=%tracknr%" -T "GENRE=%genre%" -T "COMMENT=%comment%" -T "BAND=%albuminterpret%" -T "ALBUMARTIST=%albuminterpret%" -T "COMPOSER=%composer%" %haslyrics%--tag-from-file=LYRICS="%lyricsfile%"%haslyrics% -T "DISCNUMBER=%cdnumber%" -T "TOTALDISCS=%totalcds%" -T "TOTALTRACKS=%numtracks%" %hascover%--picture="%coverfile%"%hascover% %source% -o %dest%
TOC of the extracted CD
     Track |   Start  |  Length  | Start sector | End sector
    ---------------------------------------------------------
        1  |  0:00.00 |  3:30.41 |         0    |    15790
        2  |  3:30.41 |  4:05.74 |     15791    |    34239
        3  |  7:36.40 |  2:59.64 |     34240    |    47728
        4  | 10:36.29 |  3:37.26 |     47729    |    64029
        5  | 14:13.55 |  4:33.35 |     64030    |    84539
        6  | 18:47.15 |  3:54.11 |     84540    |   102100
        7  | 22:41.26 |  3:52.66 |    102101    |   119566
        8  | 26:34.17 |  3:54.18 |    119567    |   137134
        9  | 30:28.35 |  3:49.48 |    137135    |   154357
       10  | 34:18.08 |  4:52.60 |    154358    |   176317
       11  | 39:10.68 |  4:22.25 |    176318    |   195992
       12  | 43:33.18 |  4:25.23 |    195993    |   215890
       13  | 47:58.41 |  3:01.10 |    215891    |   229475
Range status and errors
Selected range
     Filename E:\MUSIC\Johnny Gioeli - Deen Castronovo - Set The World On Fire (KICP 1928).wav
     Peak level 94.7 %
     Extraction speed 3.3 X
     Range quality 100.0 %
     Test CRC D150BF8D
     Copy CRC D150BF8D
     Copy OK
No errors occurred
AccurateRip summary
Track  1  not present in database
Track  2  not present in database
Track  3  not present in database
Track  4  not present in database
Track  5  not present in database
Track  6  not present in database
Track  7  not present in database
Track  8  not present in database
Track  9  not present in database
Track 10  not present in database
Track 11  not present in database
Track 12  not present in database
Track 13  not present in database
None of the tracks are present in the AccurateRip database
End of status report
Индексная карта (non-compilant .cue)
REM GENRE "Hard Rock"
REM DATE 2018
REM DISCID AA0BF30D
REM COMMENT "ExactAudioCopy v1.1"
PERFORMER "Johnny Gioeli - Deen Castronovo"
TITLE "Set The World On Fire (KICP 1928)"
FILE "Johnny Gioeli - Deen Castronovo - Set The World On Fire (KICP 1928).flac" WAVE
  TRACK 01 AUDIO
    TITLE "Set The World On Fire  "
    PERFORMER "Johnny Gioeli - Deen Castronovo"
    INDEX 01 00:00:00
  TRACK 02 AUDIO
    TITLE "Through  "
    PERFORMER "Johnny Gioeli - Deen Castronovo"
    INDEX 01 03:30:41
  TRACK 03 AUDIO
    TITLE "Who I Am  "
    PERFORMER "Johnny Gioeli - Deen Castronovo"
    INDEX 01 07:36:40
  TRACK 04 AUDIO
    TITLE "Fall Like An Angel  "
    PERFORMER "Johnny Gioeli - Deen Castronovo"
    INDEX 01 10:36:29
  TRACK 05 AUDIO
    TITLE "It’s All About You  "
    PERFORMER "Johnny Gioeli - Deen Castronovo"
    INDEX 01 14:13:55
  TRACK 06 AUDIO
    TITLE "Need You Now  "
    PERFORMER "Johnny Gioeli - Deen Castronovo"
    INDEX 01 18:47:15
  TRACK 07 AUDIO
    TITLE "Ride Of Your Life  "
    PERFORMER "Johnny Gioeli - Deen Castronovo"
    INDEX 01 22:41:26
  TRACK 08 AUDIO
    TITLE "Mother  "
    PERFORMER "Johnny Gioeli - Deen Castronovo"
    INDEX 01 26:34:17
  TRACK 09 AUDIO
    TITLE "Walk With Me  "
    PERFORMER "Johnny Gioeli - Deen Castronovo"
    INDEX 01 30:28:35
  TRACK 10 AUDIO
    TITLE "Run For Your Life  "
    PERFORMER "Johnny Gioeli - Deen Castronovo"
    INDEX 01 34:18:08
  TRACK 11 AUDIO
    TITLE "Remember Me  "
    PERFORMER "Johnny Gioeli - Deen Castronovo"
    INDEX 01 39:10:68
  TRACK 12 AUDIO
    TITLE "Let Me Out  "
    PERFORMER "Johnny Gioeli - Deen Castronovo"
    INDEX 01 43:33:18
  TRACK 13 AUDIO
    TITLE "Who I Am (Acoustic Version)"
    PERFORMER "Johnny Gioeli - Deen Castronovo"
    INDEX 01 47:58:41
-
для ознакомления:
--
Загрузка...
[Профиль] [ЛС]
Показать сообщения:    
Ответить на тему

Текущее время: 14-Ноя 04:37

Часовой пояс: UTC + 4



Вы не можете начинать темы
Вы не можете отвечать на сообщения
Вы не можете редактировать свои сообщения
Вы не можете удалять свои сообщения
Вы не можете голосовать в опросах
Вы не можете прикреплять файлы к сообщениям
Вы не можете скачивать файлы