Планета обезьян: Последний рубеж / Planet of the Apes: Last Frontier (2017) WEBRip [H.264/720p-LQ] [Gameplay]

Ответить на тему
 
Автор Сообщение

Bi0S ®

Стаж: 5 месяцев 7 дней

Сообщений: 10

Создавать темы 20-Май-2018 05:02

[Цитировать]

Планета обезьян: Последний рубеж / Planet of the Apes: Last Frontier - Жанр: Приключения, Игровой фильм
Описание:
Planet of the Apes: Last Frontier - интерактивное приключение, которое связывает фильмы "Планета обезьян: Революция" и "Планета обезьян: Война". События развиваются спустя год после событий фильма "Планета обезьян: Революция". Вы сможете понаблюдать за судьбой отколовшейся группы обезьян, которая укрывается в горах. Однако обстоятельства вынуждают их спуститься в долину, где они столкнуться с людьми.
Продолжительность: 03:04:50
Качество видео: WEBRip
Видео: AVC/H.264, 1280х720, ~1127 Кбит/сек
Аудио: AAC, 2 ch, 192 Кбит/сек
Mediainfo:
Общее
Формат                                   : MPEG-4
Профиль формата                          : Base Media / Version 2
Идентификатор кодека                     : mp42 (isom/mp42)
Размер файла                             : 1,71 Гбайт
Продолжительность                        : 3 ч. 4 м.
Режим общего битрейта                    : Переменный
Общий поток                              : 1322 Кбит/сек
Дата кодирования                         : UTC 2018-03-01 07:43:02
Дата пометки                             : UTC 2018-03-01 07:43:02
gsst                                     : 0
gstd                                     : 11087133
Видео
Идентификатор                            : 1
Формат                                   : AVC
Формат/Информация                        : Advanced Video Codec
Профиль формата                          : High@L3.1
Настройки формата                        : CABAC / 1 Ref Frames
Параметр CABAC формата                   : Да
Параметр RefFrames формата               : 1 кадр
Идентификатор кодека                     : avc1
Идентификатор кодека/Информация          : Advanced Video Coding
Продолжительность                        : 3 ч. 4 м.
Битрейт                                  : 1127 Кбит/сек
Максимальный битрейт                     : 5905 Кбит/сек
Ширина                                   : 1280 пикселей
Высота                                   : 720 пикселей
Соотношение сторон                       : 16:9
Режим частоты кадров                     : Постоянный
Частота кадров                           : 30,000 кадров/сек
Цветовое пространство                    : YUV
Субдискретизация насыщенности            : 4:2:0
Битовая глубина                          : 8 бит
Тип развёртки                            : Прогрессивная
Бит/(Пиксели*Кадры)                      : 0.041
Размер потока                            : 1,46 Гбайт (85%)
Дата пометки                             : UTC 2018-03-01 07:44:21
Цветовой диапазон                        : Limited
Основные цвета                           : BT.709
Характеристики трансфера                 : BT.709
Коэффициенты матрицы                     : BT.709
Аудио
Идентификатор                            : 2
Формат                                   : AAC
Формат/Информация                        : Advanced Audio Codec
Профиль формата                          : LC
Идентификатор кодека                     : mp4a-40-2
Продолжительность                        : 3 ч. 4 м.
Вид битрейта                             : Переменный
Битрейт                                  : 192 Кбит/сек
Максимальный битрейт                     : 202 Кбит/сек
Каналы                                   : 2 канала
Расположение каналов                     : Front: L R
Частота                                  : 44,1 КГц
Частота кадров                           : 43,066 кадра/сек (1024 SPF)
Метод сжатия                             : С потерями
Размер потока                            : 254 Мбайт (15%)
Заголовок                                : IsoMedia File Produced by Google, 5-11-2011
Дата кодирования                         : UTC 2018-03-01 07:43:49
Дата пометки                             : UTC 2018-03-01 07:44:21
-Скриншоты:
Загрузка...
[Профиль] [ЛС]
Показать сообщения:    
Ответить на тему

Текущее время: 21-Окт 18:04

Часовой пояс: UTC + 4



Вы не можете начинать темы
Вы не можете отвечать на сообщения
Вы не можете редактировать свои сообщения
Вы не можете удалять свои сообщения
Вы не можете голосовать в опросах
Вы не можете прикреплять файлы к сообщениям
Вы не можете скачивать файлы