Легенда о Коловрате (2017) WEB-DL 1080p

Ответить на тему
 
Автор Сообщение

MIO2008 ®

Стаж: 6 лет 5 месяцев

Сообщений: 2199

Откуда: СССР

Создавать темы 31-Янв-2018 09:33

[Цитировать]

Информация о фильме
Название: Легенда о Коловрате
Год выхода: 2017
Жанр: история, боевик, фэнтези
Режиссер: Джаник Файзиев, Иван Шурховецкий
В ролях: Илья Малаков (Евпатий Коловрат), Полина Чернышова (Настя), Алексей Серебряков (Князь Юрий), Александр Ильин мл. (Каркуш), Игорь Савочкин (Ратмир), Тимофей Трибунцев , Александр Цой (Хан Батый), Юлия Хлынина (Лада)
О фильме: XIII век. Русь раздроблена и вот-вот падет на колени перед ханом Золотой Орды Батыем. Испепеляя города и заливая русские земли кровью, захватчики не встречают серьезного сопротивления, и лишь один воин бросает им вызов. Молодой рязанский витязь Евпатий Коловрат возглавляет отряд смельчаков, чтобы отомстить за свою любовь и за свою родину. Его отвага поразит даже Батыя, а его имя навсегда останется в памяти народа. Воин, ставший легендой. Подвиг, сохранившийся в веках.

Страна: Россия
Продолжительность: 01:52:06
Файл
Кодек: x.264
Качество: WEB-DL 1080p
Видео: AVC, 1920x800 (2.40:1), 25.000 fps, 5 120 Kbps
Звук: AC-3, 48.0 KHz, 2 ch, 384 Kbps, CBR
Субтитры: Отсутствуют
MI
Общее
Уникальный идентификатор : 175558894887175072967510048397716960543 (0x841369CBD8421343A3E67BD50AE9351F)
Полное имя : D:The.legend.of.Kolowrat.2017.WEB-DL.1080p.mkv
Формат : Matroska
Версия формата : Version 4 / Version 2
Размер файла : 4,33 Гбайт
Продолжительность : 1 ч. 52 м.
Общий поток : 5483 Кбит/сек
Дата кодирования : UTC 2018-01-30 17:37:15
Программа кодирования : mkvmerge v8.3.0 ('Over the Horizon') 64bit
Библиотека кодирования : libebml v1.3.1 + libmatroska v1.4.2
Видео
Идентификатор : 1
Формат : AVC
Формат/Информация : Advanced Video Codec
Профиль формата : High@L4
Параметр CABAC формата : Да
Параметр ReFrames формата : 4 кадра
Идентификатор кодека : V_MPEG4/ISO/AVC
Продолжительность : 1 ч. 52 м.
Битрейт : 5120 Кбит/сек
Ширина : 1920 пикселей
Высота : 800 пикселей
Соотношение сторон : 2,40:1
Режим частоты кадров : Постоянный
Частота кадров : 25,000 кадров/сек
Цветовое пространство : YUV
Субдискретизация насыщенности : 4:2:0
Битовая глубина : 8 бит
Тип развёртки : Прогрессивная
Бит/(Пиксели*Кадры) : 0.133
Размер потока : 4,02 Гбайт (93%)
Библиотека кодирования : x264 core 142
Настройки программы : cabac=1 / ref=3 / deblock=1:0:0 / analyse=0x3:0x113 / me=hex / subme=7 / psy=1 / psy_rd=1.00:0.00 / mixed_ref=1 / me_range=16 / chroma_me=1 / trellis=1 / 8x8dct=1 / cqm=0 / deadzone=21,11 / fast_pskip=1 / chroma_qp_offset=-2 / threads=36 / lookahead_threads=6 / sliced_threads=0 / nr=0 / decimate=1 / interlaced=0 / bluray_compat=0 / constrained_intra=0 / bframes=6 / b_pyramid=2 / b_adapt=1 / b_bias=0 / direct=1 / weightb=1 / open_gop=0 / weightp=2 / keyint=50 / keyint_min=26 / scenecut=0 / intra_refresh=0 / rc_lookahead=40 / rc=2pass / mbtree=1 / bitrate=5120 / ratetol=1.0 / qcomp=0.60 / qpmin=0 / qpmax=69 / qpstep=4 / cplxblur=20.0 / qblur=0.5 / vbv_maxrate=7680 / vbv_bufsize=20480 / nal_hrd=none / filler=0 / ip_ratio=1.40 / aq=1:1.00
Язык : Russian
Default : Да
Forced : Нет
Аудио
Идентификатор : 2
Формат : AC-3
Формат/Информация : Audio Coding 3
Расширение режима : CM (complete main)
Параметр Endianness формата : Big
Идентификатор кодека : A_AC3
Продолжительность : 1 ч. 52 м.
Вид битрейта : Постоянный
Битрейт : 384 Кбит/сек
Каналы : 2 канала
Расположение каналов : Front: L R
Частота : 48,0 КГц
Частота кадров : 31,250 кадров/сек (1536 spf)
Битовая глубина : 16 бит
Метод сжатия : С потерями
Размер потока : 310 Мбайт (7%)
Язык : Russian
Default : Да
Forced : Нет
Скриншоты
Рекламы нет
Загрузка...
[Профиль] [ЛС]
Показать сообщения:    
Ответить на тему

Текущее время: 19-Ноя 11:20

Часовой пояс: UTC + 4



Вы не можете начинать темы
Вы не можете отвечать на сообщения
Вы не можете редактировать свои сообщения
Вы не можете удалять свои сообщения
Вы не можете голосовать в опросах
Вы не можете прикреплять файлы к сообщениям
Вы не можете скачивать файлы