Паук (Наталия Микрюкова, Константин Фролов, Михаил Жерневский) [2017, детектив, WEBRip] (сезон 1, серии 1-40 из 40)

Ответить на тему
 
Автор Сообщение

Naryshev ®

Стаж: 5 лет 11 месяцев

Сообщений: 395

Откуда: г. Воркута

Создавать темы 14-Янв-2018 17:02

[Цитировать]

- Паук (сезон 1, серии 1-40 из 40) - Производство: Россия / Промоушн Фильм
Жанр: детектив
Режиссер: Наталия Микрюкова, Константин Фролов, Михаил Жерневский
Актеры: Валерий Панков, Нелла Стрекаловская, Алексей Вакулов, Владимир Колосов, Майя Вознесенская, Александр Борисов, Валентина Ляпина, Александр Левин, Наталия Колоскова, Валентина Муравская и др.
Описание:
Глеб живёт стерильной жизнью в герметичном мире. Он дышит воздухом без микробов и допускает только дистиллированные отношения — без эмпатии, привязанности и прочей «грязи». Он смотрит на мир через окно — окно браузера. Впрочем, это его работа: Глеб — гениальный хакер, который борется с преступностью. Его ник — Паук. Он раскрывает самые сложные дела — те, за которые полиция даже не возьмется из-за давления, профнепригодности, коррупции или просто лени. Паук может «взломать» или подобрать пароль к чему угодно. Кроме собственной жизни.
http://www.kinopoisk.ru/film/1046275
Возраст: 16+ (зрителям, достигшим 16 лет)
Дата российской премьеры: 10 октября 2017
Продолжительность: ~ 00:45:00 серия
Качество видео: WEBRip
Видео: Xvid, 720x400 (16:9), ~1401 Kbps
Аудио: AC3, 2 ch, 192 kbps
МИ
Общее
Полное имя                               : D:\Мои фильмы\Pauk_S1_1-40iz40_2017_XviD_WEBRip\Pauk_S1_01.avi
Формат                                   : AVI
Формат/Информация                        : Audio Video Interleave
Размер файла                             : 556 Мбайт
Продолжительность                        : 48 м. 27 с.
Общий поток                              : 1603 Кбит/сек
Программа кодирования                    : VirtualDubMod 1.5.10.3  [url=http://www.virtualdub-fr.org]www.virtualdub-fr.org[/url] || (build 2550/release)
Библиотека кодирования                   : VirtualDub build 40412/release
Видео
Идентификатор                            : 0
Формат                                   : MPEG-4 Visual
Профиль формата                          : Advanced Simple@L5
Параметр BVOP формата                    : 2
Параметр QPel формата                    : Нет
Параметр GMC формата                     : Без точки перехода
Параметр матрицы формата                 : Default (H.263)
Идентификатор кодека                     : XVID
Идентификатор кодека/Подсказка           : XviD
Продолжительность                        : 48 м. 27 с.
Битрейт                                  : 1401 Кбит/сек
Ширина                                   : 720 пикселей
Высота                                   : 400 пикселей
Соотношение сторон                       : 16:9
Частота кадров                           : 25,000 кадров/сек
Цветовое пространство                    : YUV
Субдискретизация насыщенности            : 4:2:0
Битовая глубина                          : 8 бит
Тип развёртки                            : Прогрессивная
Метод сжатия                             : С потерями
Бит/(Пиксели*Кадры)                      : 0.195
Размер потока                            : 486 Мбайт (87%)
Библиотека кодирования                   : XviD 67
Аудио
Идентификатор                            : 1
Формат                                   : AC-3
Формат/Информация                        : Audio Coding 3
Параметр Endianness формата              : Big
Идентификатор кодека                     : 2000
Продолжительность                        : 48 м. 27 с.
Вид битрейта                             : Постоянный
Битрейт                                  : 192 Кбит/сек
Каналы                                   : 2 канала
Расположение каналов                     : Front: L R
Частота                                  : 48,0 КГц
Частота кадров                           : 31,250 кадров/сек (1536 SPF)
Битовая глубина                          : 16 бит
Метод сжатия                             : С потерями
Размер потока                            : 66,6 Мбайт (12%)
Выравнивание                             : Соединение по промежуткам
Продолжительность промежутка             : 40  мс. (1,00 видеокадр)
Время предзагрузки промежутка            : 512  мс.
ServiceKind/String                       : Complete Main
Скриншоты:
[Профиль] [ЛС]
Показать сообщения:    
Ответить на тему

Текущее время: 22-Май 15:58

Часовой пояс: UTC + 4



Вы не можете начинать темы
Вы не можете отвечать на сообщения
Вы не можете редактировать свои сообщения
Вы не можете удалять свои сообщения
Вы не можете голосовать в опросах
Вы не можете прикреплять файлы к сообщениям
Вы не можете скачивать файлы