Казнить нельзя помиловать / Сезон: 1 / Серии: 1-12 из 12 (Ким Дружинин)

Ответить на тему
 
Автор Сообщение

valirsa ®

Стаж: 1 год 1 месяц

Сообщений: 8

Создавать темы 08-Дек-2017 17:54

[Цитировать]

-Казнить нельзя помиловать
Серии: 1-12 из 12-- Производство: Россия, Триикс Медиа
Жанр: Детектив, драма, исторический
Год выпуска: 2016 г.
Продолжительность: 12 x ~ 00:48:00
Российская премьера: 6 декабря 2017
Режиссёр: Ким Дружинин-В ролях: Мария Кожевникова, Кирилл Рубцов, Дмитрий Паламарчук, Дмитрий Астрахан, Алексей Шевченков, Игорь Иванов, Роман Притула, Максим Меркулов (II), Игорь Грабузов, Николай Иванов (VII), Евгений Добряков, Александр Глебов, Сергей Сафронов, Анастасия Шутова, Артур Федынко, Анатолий Хропов, Александр Гаврилов (III), Виталий Крылов-Описание: Нина Колосова, бывшая разведчица, пытается забыть об ужасах войны и начать все с чистого листа. Однако мирная жизнь в послевоенной северной столице оказывается не менее страшной, чем на фронте. Любимого мужа Нины, сотрудника отдела по борьбе с бандитизмом, убивают. Девушка решает мстить. Хладнокровно расстреливая воров и убийц, героиня наводит ужас на город. За расследование совершенных ею преступлений берется майор Борис Грановский.-Sample
Кинопоиск
Качество видео: WEBRip
Контейнер: AVI
Видео кодек: XviD
Аудио кодек: MP3
Видео: 720x400 (1.80:1), 25 fps, XviD build 50 ~1679 kbps avg, 0.23 bit/pixel
Аудио: 48 kHz, MPEG Layer 3, 2 ch, ~128.00 kbps avg
Cубтитры: отсутствуют
Media Info
Общее
Полное имя : D:\Казнить нельзя помиловать.2016.avi
Формат : AVI
Формат/Информация : Audio Video Interleave
Размер файла : 620 Мбайт
Продолжительность : 47 м. 40 с.
Общий поток : 1818 Кбит/сек
Программа кодирования : VirtualDubMod 1.5.10.3 | www.virtualdub-fr.org || (build 2550/release)
Библиотека кодирования : VirtualDubMod build 2550/release
Видео
Идентификатор : 0
Формат : MPEG-4 Visual
Профиль формата : Advanced Simple@L5
Настройки формата : BVOP2
Параметр BVOP формата : 2
Параметр QPel формата : Нет
Параметр GMC формата : Без точки перехода
Параметр матрицы формата : Default (MPEG)
Идентификатор кодека : XVID
Идентификатор кодека/Подсказка : XviD
Продолжительность : 47 м. 40 с.
Битрейт : 1680 Кбит/сек
Ширина : 720 пикселей
Высота : 400 пикселей
Соотношение сторон : 16:9
Частота кадров : 25,000 кадров/сек
Цветовое пространство : YUV
Субдискретизация насыщенности : 4:2:0
Битовая глубина : 8 бит
Тип развёртки : Прогрессивная
Метод сжатия : С потерями
Бит/(Пиксели*Кадры) : 0.233
Размер потока : 573 Мбайт (92%)
Библиотека кодирования : XviD 1.2.1 (UTC 2008-12-04)
Аудио
Идентификатор : 1
Формат : MPEG Audio
Версия формата : Version 1
Профиль формата : Layer 3
Настройки формата : Joint stereo / MS Stereo
Идентификатор кодека : 55
Идентификатор кодека/Подсказка : MP3
Продолжительность : 47 м. 40 с.
Вид битрейта : Постоянный
Битрейт : 128 Кбит/сек
Каналы : 2 канала
Частота : 48,0 КГц
Частота кадров : 41,667 кадра/сек (1152 SPF)
Метод сжатия : С потерями
Размер потока : 43,7 Мбайт (7%)
Выравнивание : Соединение по промежуткам
Продолжительность промежутка : 40 мс. (1,00 видеокадр)
Время предзагрузки промежутка : 504 мс.
Библиотека кодирования : LAME3.99r
Настройки программы : -m j -V 4 -q 9 -lowpass 17 -b 128
Скриншот c названием фильма
Скриншоты
[Профиль] [ЛС]
Показать сообщения:    
Ответить на тему

Текущее время: 25-Июн 19:58

Часовой пояс: UTC + 4



Вы не можете начинать темы
Вы не можете отвечать на сообщения
Вы не можете редактировать свои сообщения
Вы не можете удалять свои сообщения
Вы не можете голосовать в опросах
Вы не можете прикреплять файлы к сообщениям
Вы не можете скачивать файлы