Миссии / Missions (Жюльен Лякомб / Julien Lacombe) [2017, фантастика, HDTVRip, 1080p-LQ] (сезон 1, серии 1-10 из 10) MVO [Sunshine Studio]

Ответить на тему
 
Автор Сообщение

Naryshev ®

Стаж: 5 лет 4 месяца

Сообщений: 341

Откуда: г. Воркута

Создавать темы 14-Июл-2017 22:04

[Цитировать]

- Миссии / Missions (сезон 1, серии 1-10 из 10) Sunshine Studio- Производство: Франция
Жанр: фантастика
Режиссер: Жюльен Лякомб
Актеры: Хелена Вивс, Клементе Обер, Матиа Млекюз, Жан-Туссен Бернард, Джиорджия Синикорни, Коме Левин, Эйдрианна Градзьел, Арбен Байрактарай, Винсент Лондез и др.
Описание:
Освоение человечеством Марса подходит к самой важной части. Туда впервые отправляются люди. Лучшим космонавтам выпадает честь первого полета к далекой красной планете. Им предстоит выполнить важную миссию и передать все данные на Землю. Полет проходит нормально. С космонавтами работает психолог, чтобы работа проходила без сбоев. Но то, что они обнаружили на Марсе приводит всех в состояние шока. В 1967 году из полета в космос не вернулся советский космонавт. Именно его встретили на далекой планете. Но как ему удалось выжить в таких условиях?
https://www.kinopoisk.ru/film/1046513/
http://www.imdb.com/title/tt6445112/
Дата мировой премьеры: 1 июня 2017
Продолжительность: ~00:27:00 серия
Качество видео: HDTVRip http://sendfile.su/1346293
Перевод: Многоголосый закадровый, любительский (Sunshine Studio)
Видео: AVC/H.264, 1920х720, ~4065 kbps
Аудио 1: AC3, 2 ch, 192 kbps, CBR | русский, многоголосый закадровый
Аудио 2: AC3, 2 ch, 192 kbps, CBR | французский
МИ
Общее
Уникальный идентификатор                 : 247451902379175041739161671450124141716 (0xBA2980BB5A1A046D85DEAFA8AF44C494)
Полное имя                               : D:\FILMЬl\Missii.S_01.1080P\Missii.S01_E01.1080p.mkv
Формат                                   : Matroska
Версия формата                           : Version 4 / Version 2
Размер файла                             : 840 Мбайт
Продолжительность                        : 26 м. 23 с.
Общий поток                              : 4451 Кбит/сек
Название фильма                          : Odysseus
Дата кодирования                         : UTC 2017-07-04 14:51:01
Программа кодирования                    : mkvmerge v8.1.0 ('Psychedelic Postcard') 64bit
Библиотека кодирования                   : libebml v1.3.1 + libmatroska v1.4.2
Видео
Идентификатор                            : 1
Формат                                   : AVC
Формат/Информация                        : Advanced Video Codec
Профиль формата                          : [url=mailto:High@L4.1]High@L4.1[/url]
Параметр CABAC формата                   : Да
Параметр ReFrames формата                : 5 кадров
Идентификатор кодека                     : V_MPEG4/ISO/AVC
Продолжительность                        : 26 м. 23 с.
Битрейт                                  : 4065 Кбит/сек
Ширина                                   : 1920 пикселей
Высота                                   : 720 пикселей
Соотношение сторон                       : 2,667
Режим частоты кадров                     : Постоянный
Частота кадров                           : 25,000 кадров/сек
Цветовое пространство                    : YUV
Субдискретизация насыщенности            : 4:2:0
Битовая глубина                          : 8 бит
Тип развёртки                            : Прогрессивная
Бит/(Пиксели*Кадры)                      : 0.118
Размер потока                            : 767 Мбайт (91%)
Заголовок                                : Missions.S01E01.FRENCH.1080p.HDTV.x264-FRATERNiTY
Библиотека кодирования                   : x264 core 148 r2762 90a61ec
Настройки программы                      : cabac=1 / ref=5 / deblock=1:0:0 / analyse=0x3:0x113 / me=umh / subme=9 / psy=1 / psy_rd=1.00:0.00 / mixed_ref=1 / me_range=16 / chroma_me=1 / trellis=1 / 8x8dct=1 / cqm=0 / deadzone=21,11 / fast_pskip=1 / chroma_qp_offset=-2 / threads=12 / lookahead_threads=3 / sliced_threads=0 / nr=0 / decimate=1 / interlaced=0 / bluray_compat=0 / constrained_intra=0 / bframes=3 / b_pyramid=2 / b_adapt=2 / b_bias=0 / direct=3 / weightb=1 / open_gop=0 / weightp=2 / keyint=250 / keyint_min=25 / scenecut=40 / intra_refresh=0 / rc_lookahead=50 / rc=crf / mbtree=1 / crf=17.0 / qcomp=0.60 / qpmin=0 / qpmax=69 / qpstep=4 / ip_ratio=1.40 / aq=1:1.00
Default                                  : Да
Forced                                   : Нет
Цветовой диапазон                        : Limited
Коэффициенты матрицы                     : BT.709
Аудио #1
Идентификатор                            : 2
Формат                                   : AC-3
Формат/Информация                        : Audio Coding 3
Параметр Endianness формата              : Big
Идентификатор кодека                     : A_AC3
Продолжительность                        : 26 м. 22 с.
Вид битрейта                             : Постоянный
Битрейт                                  : 192 Кбит/сек
Каналы                                   : 2 канала
Расположение каналов                     : Front: L R
Частота                                  : 48,0 КГц
Частота кадров                           : 31,250 кадров/сек (1536 spf)
Битовая глубина                          : 16 бит
Метод сжатия                             : С потерями
Размер потока                            : 36,2 Мбайт (4%)
Язык                                     : Russian
ServiceKind/String                       : Complete Main
Default                                  : Да
Forced                                   : Нет
Аудио #2
Идентификатор                            : 3
Формат                                   : AC-3
Формат/Информация                        : Audio Coding 3
Режим                                    : Dolby Digital
Параметр Endianness формата              : Big
Идентификатор кодека                     : A_AC3
Продолжительность                        : 26 м. 23 с.
Вид битрейта                             : Постоянный
Битрейт                                  : 192 Кбит/сек
Каналы                                   : 2 канала
Расположение каналов                     : Front: L R
Частота                                  : 48,0 КГц
Частота кадров                           : 31,250 кадров/сек (1536 spf)
Битовая глубина                          : 16 бит
Метод сжатия                             : С потерями
Размер потока                            : 36,2 Мбайт (4%)
Заголовок                                : Missions.S01E01.FRENCH
Язык                                     : French
ServiceKind/String                       : Complete Main
Default                                  : Нет
Forced                                   : Нет
Список серий
01.Ulysse / Улисс
02.Mars / Марс
03.Survivant / Выживший
04.Pierre / Камень
05.Alliance / Союз
06.Irene / Ирен
07.Faute / Ошибка
08.Phenix / Феникс
09.Volodia / Володя
10.Orage / Буря
Скриншоты:
Загрузка...
[Профиль] [ЛС]
Показать сообщения:    
Ответить на тему

Текущее время: 18-Окт 00:15

Часовой пояс: UTC + 4



Вы не можете начинать темы
Вы не можете отвечать на сообщения
Вы не можете редактировать свои сообщения
Вы не можете удалять свои сообщения
Вы не можете голосовать в опросах
Вы не можете прикреплять файлы к сообщениям
Вы не можете скачивать файлы