Наркомовский обоз (Влад Фурман) [2011, драма, приключения, военный, DVDRip] (серии 1-4 из 4)

Ответить на тему
 
Автор Сообщение

Naryshev ®

Стаж: 5 лет 1 месяц

Сообщений: 301

Откуда: г. Воркута

Создавать темы 21-Май-2017 10:31

[Цитировать]

- Наркомовский обоз (серии 1-4 из 4) - Производство: Россия
Жанр: драма, приключения, военный
Режиссер: Влад Фурман
Актеры: Сергей Маховиков, Ольга Фадеева, Анна Арланова, Ирина Рахманова, Ричард Бондарев, Анатолий Петров, Дарья Баранова, Алексей Дозморов, Агния Кузнецова и др.
Описание:
1941 год. Только что вышло постановление Комитета Обороны о водочном довольствии для действующей армии. Старшина Филиппов получает задание: впервые доставить в стрелковую дивизию те самые знаменитые «100 наркомовских грамм». В помощники ему дают 4 девушки-красноармейца, местного старика-проводника Архипа и его внука-подростка Митю. Погрузив на телеги тару, обоз трогается в путь. За несколько часов этой, казалось бы, рутинной тыловой поездки всем им предстоит пройти настоящие военные испытания: не единожды вступить бой, стать свидетелями высокой доблести и подлой трусости, узнать любовь и ревность.
[kp]https://www.kinopoisk.ru/film/586461/[/kp]
Возраст: 16+ (зрителям, достигшим 16 лет)
Релиз от: Алехаndr
Продолжительность: ~00:49:00 серия
Качество видео: DVDRip
Видео: Xvid, 720x400 (16:9), ~3371 Kbps
Аудио: AC3, 6 ch, 384 Kbps
МИ
Общее
Полное имя                               : F:\Наркомовский обоз (2011)\Серия 1.avi
Формат                                   : AVI
Формат/Информация                        : Audio Video Interleave
Размер файла                             : 1,29 Гбайт
Продолжительность                        : 48 м. 55 с.
Общий поток                              : 3767 Кбит/сек
Видео
Идентификатор                            : 0
Формат                                   : MPEG-4 Visual
Профиль формата                          : Advanced Simple@L4
Параметр BVOP формата                    : 2
Параметр QPel формата                    : Нет
Параметр GMC формата                     : Без точки перехода
Параметр матрицы формата                 : Default (H.263)
Идентификатор кодека                     : XVID
Идентификатор кодека/Подсказка           : XviD
Продолжительность                        : 48 м. 55 с.
Битрейт                                  : 3371 Кбит/сек
Ширина                                   : 720 пикселей
Высота                                   : 400 пикселей
Соотношение сторон                       : 16:9
Частота кадров                           : 25,000 кадров/сек
Цветовое пространство                    : YUV
Субдискретизация насыщенности            : 4:2:0
Битовая глубина                          : 8 бит
Тип развёртки                            : Прогрессивная
Метод сжатия                             : С потерями
Бит/(Пиксели*Кадры)                      : 0.468
Размер потока                            : 1,15 Гбайт (89%)
Библиотека кодирования                   : XviD 64
Аудио
Идентификатор                            : 1
Формат                                   : AC-3
Формат/Информация                        : Audio Coding 3
Параметр Endianness формата              : Big
Идентификатор кодека                     : 2000
Продолжительность                        : 48 м. 55 с.
Вид битрейта                             : Постоянный
Битрейт                                  : 384 Кбит/сек
Каналы                                   : 6 каналов
Расположение каналов                     : Front: L C R, Side: L R, LFE
Частота                                  : 48,0 КГц
Частота кадров                           : 31,250 кадров/сек (1536 spf)
Битовая глубина                          : 16 бит
Метод сжатия                             : С потерями
Размер потока                            : 134 Мбайт (10%)
Выравнивание                             : Соединение по промежуткам
Продолжительность промежутка             : 32  мс. (0,80 видеокадр)
ServiceKind/String                       : Complete Main
Скриншоты:
Загрузка...
[Профиль] [ЛС]
Показать сообщения:    
Ответить на тему

Текущее время: 25-Июл 12:48

Часовой пояс: UTC + 4



Вы не можете начинать темы
Вы не можете отвечать на сообщения
Вы не можете редактировать свои сообщения
Вы не можете удалять свои сообщения
Вы не можете голосовать в опросах
Вы не можете прикреплять файлы к сообщениям
Вы не можете скачивать файлы