Найди меня, если сможешь / Come and Find Me (Зак Уэдон / Zack Whedon) [2016, Триллер, Драма, WEB-DLRip] (Официальный звук)

Ответить на тему
 
Автор Сообщение

Naryshev ®

Стаж: 5 лет

Сообщений: 259

Откуда: г. Воркута

Создавать темы 10-Янв-2017 16:53

[Цитировать]

- Найди меня, если сможешь / Come and Find Me - Производство: Великобритания
Жанр: Триллер, Драма
Режиссер: Зак Уэдон
Актеры: Аарон Пол, Аннабелль Уоллис, Гаррет Диллахант, Валери Тиан, Захари Найтон, Терри Чен, Джордана Ларги, Дин Редман, Майкл Копса, Джессика Хифи
Описание:
Клэр и Дэвид нашли друг друга и стали счастливой парой: ссорились, мирились и мечтали прожить вместе сто лет. Пока однажды Клэр не исчезла. В поисках любимой Дэвид сталкивается с криминальными авторитетами, сотрудниками спецслужб. Его чувствам предстоит подвергнуться серьезным испытаниям. Готов ли он идти до конца ради любви?

https://www.kinopoisk.ru/film/733412/
http://www.imdb.com/title/tt2597768/
Возраст: 18+ (зрителям, достигшим 18 лет. запрещено для детей)
Рейтинг MPAA: NC-17 (лицам до 17 лет просмотр запрещен)
Дата мировой премьеры: 11 ноября 2016
Дата российской премьеры: 22 декабря 2016, «Capella Film»
Продолжительность: 01:52:11
Качество видео: WEB-DLRip http://multi-up.com/1135044
Перевод: Многоголосый закадровый, профессиональный (Официальный звук)
Вид субтитров: Отсутствуют
Видео: Xvid, 720x304, ~1660 kbps
Аудио: AC3, 2 ch, 192 kbps, CBR
МИ
Общее
Полное имя                               : C:Торренты\Найди меня если сможешь.2016.P.WEB-DLRip.avi
Формат                                   : AVI
Формат/Информация                        : Audio Video Interleave
Размер файла                             : 1,46 Гбайт
Продолжительность                        : 1 ч. 52 м.
Общий поток                              : 1862 Кбит/сек
Программа кодирования                    : VirtualDubMod 1.5.10.2 (build 2540/release)
Библиотека кодирования                   : VirtualDubMod build 2540/release
Видео
Идентификатор                            : 0
Формат                                   : MPEG-4 Visual
Профиль формата                          : Advanced Simple@L5
Параметр BVOP формата                    : 2
Параметр QPel формата                    : Нет
Параметр GMC формата                     : Без точки перехода
Параметр матрицы формата                 : Default (MPEG)
Идентификатор кодека                     : XVID
Идентификатор кодека/Подсказка           : XviD
Продолжительность                        : 1 ч. 52 м.
Битрейт                                  : 1660 Кбит/сек
Ширина                                   : 720 пикселей
Высота                                   : 304 пикселя
Соотношение сторон                       : 2,35:1
Частота кадров                           : 23,976 (24000/1001) кадра/сек
Цветовое пространство                    : YUV
Субдискретизация насыщенности            : 4:2:0
Битовая глубина                          : 8 бит
Тип развёртки                            : Прогрессивная
Метод сжатия                             : С потерями
Бит/(Пиксели*Кадры)                      : 0.316
Размер потока                            : 1,30 Гбайт (89%)
Библиотека кодирования                   : XviD 1.2.1 (UTC 2008-12-04)
Аудио
Идентификатор                            : 1
Формат                                   : AC-3
Формат/Информация                        : Audio Coding 3
Расширение режима                        : CM (complete main)
Параметр Endianness формата              : Big
Идентификатор кодека                     : 2000
Продолжительность                        : 1 ч. 52 м.
Вид битрейта                             : Постоянный
Битрейт                                  : 192 Кбит/сек
Каналы                                   : 2 канала
Расположение каналов                     : Front: L R
Частота                                  : 48,0 КГц
Частота кадров                           : 31,250 кадров/сек (1536 spf)
Битовая глубина                          : 16 бит
Метод сжатия                             : С потерями
Размер потока                            : 154 Мбайт (10%)
Выравнивание                             : Разделение по промежуткам
Продолжительность промежутка             : 42  мс. (1,00 видеокадр)
Время предзагрузки промежутка            : 500  мс.
Скриншоты:
Загрузка...
[Профиль] [ЛС]
Показать сообщения:    
Ответить на тему

Текущее время: 26-Июн 00:44

Часовой пояс: UTC + 4



Вы не можете начинать темы
Вы не можете отвечать на сообщения
Вы не можете редактировать свои сообщения
Вы не можете удалять свои сообщения
Вы не можете голосовать в опросах
Вы не можете прикреплять файлы к сообщениям
Вы не можете скачивать файлы