Саша добрый, Саша злой / Серии: 1-20 из 20 (Мичислав Юзовский) [2016,детектив, SATRip-AVC]

Ответить на тему
 
Автор Сообщение

aleksan55 ®

Стаж: 24 дня

Сообщений: 10

Откуда: Россия,Тюмень

Создавать темы 10-Янв-2017 02:09

[Цитировать]

Саша добрый, Саша злой --
Год выпуска: 2016
Производство: Россия, "Top line Film"
Жанр: детектив
Продолжительность: 00:43:00
Субтитры: нет
--
Режиссёр: Мичислав Юзовский
--
В ролях: Роман Мадянов, Владимир Яглыч, Светлана Устинова, Наталия Антонова, Леонид Кулагин, Владимир Качан, Ирина Ефремова , Игорь Филиппов, Александр Песков, Юлия Галкина, Вячеслав Гришечкин, Мария Фелянина, Александр Миронов , Дмитрий Мазуров, Виктория Герасимова, Ярослав Леонов, Виталий Адасюк, Александр Мельник , Сергей Букреев, Сергей Гурьев, Елена Коровчук, Сергей Калашников, Михаил Жигалов, Константин Гацалов, Андрей Стоянов

--
Описание: В одно из районных отделений полиции города Севастополя командируют из Москвы молодого следователя - майора Александра Демина .Одновременно с Деминым в город прилетают и московские бандиты, которые собираются устроить передел власти в городе. Их главная цель – контроль над портом. С момента появления столичных гостей Севастополь захлестывает волна убийств, на первый взгляд никак не связанных между собой. Также по городу начинает распространяться новый сильнодействующий наркотик, который не оставляет в организме следов.Расследованием участившихся в городе преступлений поручают заниматься Александру Демину и опытному оперативнику с большим стажем - следователю Александру Шестопалову . В отделе их сразу же называют «Саша добрый» и «Саша злой».
--

--
Релиз от:
--
Качество: SATRip-AVC
Формат: MKV
Видео кодек: H.264
Аудио кодек: AC3
Видео: MPEG4 Video (H264), 720x462@720x400, 25fps,1500 Kbps,bit/pixel 0.181
Аудио: AC3 48000Hz, stereo, 192kbps,2 ch

--
MI
Общее
Уникальный идентификатор : 211586302487362140478913549600628727233 (0x9F2E0A21CCFE6B24887EA57C5464DDC1)
Полное имя : E:\Саша добрый, Саша злой\01 серия_Саша добрый, Саша злой_rip by_Aleksan55.mkv
Формат : Matroska
Версия формата : Version 2
Размер файла : 522 Мбайт
Продолжительность : 43 м.
Общий поток : 1694 Кбит/сек
Дата кодирования : UTC 2017-01-09 20:46:37
Программа кодирования : mkvmerge v7.8.0 ('River Man') 32bit built on Apr 3 2015 12:11:22
Библиотека кодирования : libebml v1.3.1 + libmatroska v1.4.2
Видео
Идентификатор : 1
Формат : AVC
Формат/Информация : Advanced Video Codec
Профиль формата : High@L3.1
Параметр CABAC формата : Да
Параметр ReFrames формата : 14 кадров
Идентификатор кодека : V_MPEG4/ISO/AVC
Продолжительность : 43 м.
Битрейт : 1500 Кбит/сек
Ширина : 720 пикселей
Высота : 462 пикселя
Соотношение сторон : 16:10
Режим частоты кадров : Постоянный
Частота кадров : 25,000 кадров/сек
Цветовое пространство : YUV
Субдискретизация насыщенности : 4:2:0
Битовая глубина : 8 бит
Тип развёртки : Прогрессивная
Бит/(Пиксели*Кадры) : 0.180
Размер потока : 453 Мбайт (87%)
Библиотека кодирования : x264 core 148 r2638 7599210
Настройки программы : cabac=1 / ref=14 / deblock=1:-1:-1 / analyse=0x3:0x133 / me=umh / subme=9 / psy=1 / psy_rd=1.00:0.15 / mixed_ref=0 / me_range=32 / chroma_me=1 / trellis=2 / 8x8dct=1 / cqm=0 / deadzone=21,11 / fast_pskip=0 / chroma_qp_offset=-3 / threads=3 / lookahead_threads=3 / sliced_threads=0 / nr=0 / decimate=0 / interlaced=0 / bluray_compat=0 / constrained_intra=0 / bframes=14 / b_pyramid=2 / b_adapt=1 / b_bias=0 / direct=3 / weightb=1 / open_gop=0 / weightp=2 / keyint=250 / keyint_min=25 / scenecut=40 / intra_refresh=0 / rc_lookahead=70 / rc=2pass / mbtree=1 / bitrate=1500 / ratetol=1.0 / qcomp=0.80 / qpmin=0 / qpmax=40 / qpstep=4 / cplxblur=20.0 / qblur=0.5 / ip_ratio=1.40 / aq=1:1.20
Default : Да
Forced : Нет
Цветовой диапазон : Limited
Основные цвета : BT.601 PAL
Характеристики трансфера : BT.470 System B, BT.470 System G
Коэффициенты матрицы : BT.601
Аудио
Идентификатор : 2
Формат : AC-3
Формат/Информация : Audio Coding 3
Расширение режима : CM (complete main)
Параметр Endianness формата : Big
Идентификатор кодека : A_AC3
Продолжительность : 43 м.
Вид битрейта : Постоянный
Битрейт : 192 Кбит/сек
Каналы : 2 канала
Расположение каналов : Front: L R
Частота : 48,0 КГц
Метод сжатия : С потерями
Размер потока : 59,2 Мбайт (11%)
Default : Да
Forced : Нет
Скриншоты
Внимание! Раздача ведётся путём добавления новых серий
Внимание! Раздача ведётся путём добавления новых серий; при каждом добавлении создаётся новый торрент.
Чтобы начать докачку новой серии, пользователям необходимо сделать следующее:
1. Остановить скачивание;
2. Удалить старый торрент у себя из клиента (старые серии удалять не надо);
3. Скачать новый торрент и запустить его у себя в клиенте вместо старого, при этом указать клиенту путь в старую папку куда и должно происходить скачивание новых серий. Ваш клиент при этом должен произвести хеширование (проверку) старой папки и будет докачивать только те серии, которых у вас ещё нет. Старые серии при этом не удаляются, а продолжают раздаваться! Eсли вы уже удалили старые серии, то предотвратить повторную закачку старых серий можно, отжав галочку в соответствующих местах при запуске нового торрента.
--Рекламы нет.Добавлены 19-20 серия.
[Профиль] [ЛС]
Показать сообщения:    
Ответить на тему

Текущее время: 24-Янв 01:14

Часовой пояс: UTC + 4



Вы не можете начинать темы
Вы не можете отвечать на сообщения
Вы не можете редактировать свои сообщения
Вы не можете удалять свои сообщения
Вы не можете голосовать в опросах
Вы не можете прикреплять файлы к сообщениям
Вы не можете скачивать файлы