Стройка (Роман Самгин) [2013, комедия, приключения, WEB-DL, 720p-LQ] (сезон 1, серии 1-20 из 20)

Ответить на тему
 
Автор Сообщение

Naryshev ®

Стаж: 4 года 7 месяцев

Сообщений: 160

Откуда: г. Воркута

Создавать темы 09-Янв-2017 16:42

[Цитировать]

-Стройка (сезон 1, серии 1-20 из 20) - Производство: Россия / Yellow, Black and White
Жанр: комедия, приключения
Режиссер: Роман Самгин
Актеры: Артём Григорьев, Ирина Таранник, Эдуард Радзюкевич, Никита Панфилов, Юлия Михалкова, Ярослав Ефременков, Светлана Свибильская, Сергей Фролов, Александр Серов-Останкинский, Ксения Бехтина, Елена Коллегова и др.
Описание:
В центре истории — «непримиримые противоречия», в которых погрязли супруги Морозовы. Максим Морозов и его беременная жена Катя обращаются в суд с заявлением о разводе. Каждый из сторон просит судью отдать злополучный дом другому. Чтобы разобраться в этом деле, предстоит покопаться в истории семьи Морозовых… День за днём Максим и Катя совершали все ошибки «новичков». Желая сэкономить, Морозовы идут наперекор известной поговорке: тщетно ищут хороших рабочих, покупают окна по акции, а потом пытаются их продать, самостоятельно разбираются в тонкостях прокладки труб, а в итоге платят больше за устранение неполадок… Но пройдя через все испытания, Морозовы станут настоящими экспертами в ремонте. Но нужен ли им будет в итоге этот злополучный дом?
https://www.kinopoisk.ru/film/841687/
Дата российской премьеры: 2 января 2017
Продолжительность: ~00:45:00 серия
Качество видео: WEB-DL http://sendfile.su/1296016
Видео: AVC/H.264, 1280x720 (16:9), ~1436 kbps
Аудио: AC3, 2 ch, 192 kbps
МИ
Общее
Уникальный идентификатор                 : 28722966893669462380683066686667793840 (0x159BD79AA145D725659052A112ECA5B0)
Полное имя                               : N:\Стройка (2013) WEB-DL (720p)\01.Стройка.mkv
Формат                                   : Matroska
Версия формата                           : Version 4 / Version 2
Размер файла                             : 541 Мбайт
Продолжительность                        : 45 м. 30 с.
Общий поток                              : 1661 Кбит/сек
Программа кодирования                    : Lavf56.36.100
Библиотека кодирования                   : Lavf56.36.100 / Lavf56.36.100
Видео
Идентификатор                            : 1
Формат                                   : AVC
Формат/Информация                        : Advanced Video Codec
Профиль формата                          : [url=mailto:Main@L3.1]Main@L3.1[/url]
Параметр CABAC формата                   : Да
Параметр ReFrames формата                : 3 кадра
Идентификатор кодека                     : V_MPEG4/ISO/AVC
Продолжительность                        : 45 м. 30 с.
Битрейт                                  : 1436 Кбит/сек
Ширина                                   : 1280 пикселей
Высота                                   : 720 пикселей
Соотношение сторон                       : 16:9
Режим частоты кадров                     : Постоянный
Частота кадров                           : 25,000 кадров/сек
Цветовое пространство                    : YUV
Субдискретизация насыщенности            : 4:2:0
Битовая глубина                          : 8 бит
Тип развёртки                            : Прогрессивная
Бит/(Пиксели*Кадры)                      : 0.062
Размер потока                            : 467 Мбайт (86%)
Default                                  : Да
Forced                                   : Нет
Цветовой диапазон                        : Limited
Основные цвета                           : BT.709
Характеристики трансфера                 : BT.709
Коэффициенты матрицы                     : BT.709
Аудио
Идентификатор                            : 2
Формат                                   : AC-3
Формат/Информация                        : Audio Coding 3
Расширение режима                        : CM (complete main)
Параметр Endianness формата              : Big
Идентификатор кодека                     : A_AC3
Продолжительность                        : 45 м. 30 с.
Вид битрейта                             : Постоянный
Битрейт                                  : 192 Кбит/сек
Каналы                                   : 2 канала
Расположение каналов                     : Front: L R
Частота                                  : 44,1 КГц
Частота кадров                           : 28,711 кадров/сек (1536 spf)
Битовая глубина                          : 16 бит
Метод сжатия                             : С потерями
Задержка видео                           : -40 мс.
Размер потока                            : 62,5 Мбайт (12%)
Язык                                     : unknown
Default                                  : Да
Forced                                   : Нет
Раздача ведётся путём добавления новых серий:
Раздача ведётся путём добавления новых серий; при каждом добавлении создаётся новый торрент. Чтобы начать докачку новой серии, пользователям необходимо сделать следующее:
(1) остановить скачивание,
(2) удалить старый торрент у себя из клиента (старые серии удалять не надо),
(3) скачать новый торрент и запустить его у себя в клиенте вместо старого, при этом указать клиенту путь в старую папку куда и должно происходить скачивание новых серий.
Ваш клиент при этом должен произвести хеширование (проверку) старой папки (если не производит сам - помогите ему сделать это), и будет докачивать только те серии которых у вас ещё нет. Старые серии при этом не удаляются, а продолжают раздаваться!
Eсли вы уже удалили старые серии, то предотвратить повторную закачку старых серий можно, отжав галочку в соответствующих местах при запуске нового торрента. По возможности, желательно не удалять старые серии как можно дольше чтобы релизёр не столько продолжал раздавать старые серии, а смог сконцентрироваться на новых.
Скриншоты:
[Профиль] [ЛС]
Показать сообщения:    
Ответить на тему

Текущее время: 24-Янв 01:10

Часовой пояс: UTC + 4



Вы не можете начинать темы
Вы не можете отвечать на сообщения
Вы не можете редактировать свои сообщения
Вы не можете удалять свои сообщения
Вы не можете голосовать в опросах
Вы не можете прикреплять файлы к сообщениям
Вы не можете скачивать файлы