Wolfgang Muthspiel - Rising Grace (2016) [FLAC|Lossless|tracks + .cue] <Modern Creative, Guitar Jazz>

Ответить на тему
 
Автор Сообщение

Direktor_49 ®

Стаж: 2 года

Сообщений: 4

Откуда: Калининград

Создавать темы 03-Ноя-2016 09:49

[Цитировать]

Wolfgang Muthspiel - Rising Grace (2016) - Год: 2016
Жанр: Modern Creative, Guitar Jazz
Издание: ECM Records - ECM 2515
Продолжительность: 01:08:36
Кодек: FLAC
Битрейт: Lossless
Тип рипа: tracks + .cue
Треклист:
01. Rising Grace (Muthspiel) - 5:56
02. Intensive Care (Muthspiel) - 10:18
03. Triad Song (Muthspiel) - 8:04
04. Father and Sun (Muthspiel) - 8:14
05. Wolfgang's Waltz (Mehldau) - 8:02
06. Superonny (Muthspiel) - 6:44
07. Boogaloo (Muthspiel) - 7:30
08. Den Wheeler, Den Kenny (Muthspiel) - 7:50
09. Ending Music (Muthspiel) - 1:23
10. Oak (Muthspiel) - 4:35
Состав:
Wolfgang Muthspiel - guitar
Ambrose Akinmusire - trumpet
Brad Mehldau - piano
Larry Grenadier - double bass
Brian Blade - drums
Recorded at Studios La Buissonne, Pernes-les-Fontaines in January 2016.
Отчёт EAC:
Exact Audio Copy V1.1 from 23. June 2015
EAC extraction logfile from 2. November 2016, 18:20
Wolfgang Muthspiel / Rising Grace [ECM 2515]
Used drive : PLEXTOR DVDR PX-L890SA Adapter: 1 ID: 1
Read mode : Secure
Utilize accurate stream : Yes
Defeat audio cache : Yes
Make use of C2 pointers : No
Read offset correction : 6
Overread into Lead-In and Lead-Out : No
Fill up missing offset samples with silence : Yes
Delete leading and trailing silent blocks : No
Null samples used in CRC calculations : Yes
Used interface : Native Win32 interface for Win NT & 2000
Gap handling : Appended to previous track
Used output format : User Defined Encoder
Selected bitrate : 128 kBit/s
Quality : High
Add ID3 tag : No
Command line compressor : C:\Program Files (x86)\Exact Audio Copy\FLAC\FLAC.EXE
Additional command line options : -8 -V -T "ARTIST=%artist%" -T "TITLE=%title%" -T "ALBUM=%albumtitle%" -T "DATE=%year%" -T "TRACKNUMBER=%tracknr%" -T "TOTALTRACKS=%numtracks%" -T "GENRE=%genre%" -T "ALBUMARTIST=%albumartist%" -T "ALBUM ARTIST=%albumartist%" -T "COMMENT=EAC Secure Mode, Test & Copy, AccurateRip, FLAC -8" %source%
TOC of the extracted CD
Track | Start | Length | Start sector | End sector
---------------------------------------------------------
1 | 0:00.00 | 5:56.24 | 0 | 26723
2 | 5:56.24 | 10:17.48 | 26724 | 73046
3 | 16:13.72 | 8:04.08 | 73047 | 109354
4 | 24:18.05 | 8:14.30 | 109355 | 146434
5 | 32:32.35 | 8:01.74 | 146435 | 182583
6 | 40:34.34 | 6:44.05 | 182584 | 212888
7 | 47:18.39 | 7:30.26 | 212889 | 246664
8 | 54:48.65 | 7:50.17 | 246665 | 281931
9 | 62:39.07 | 1:23.03 | 281932 | 288159
10 | 64:02.10 | 4:34.65 | 288160 | 308774
Track 1
Filename D:\Flac Rips\01 - Rising Grace.wav
Pre-gap length 0:00:02.00
Peak level 94.0 %
Extraction speed 4.1 X
Track quality 100.0 %
Test CRC CB3CD7EF
Copy CRC CB3CD7EF
Track not present in AccurateRip database
Copy OK
Track 2
Filename D:\Flac Rips\02 - Intensive Care.wav
Peak level 83.7 %
Extraction speed 5.0 X
Track quality 100.0 %
Test CRC 4885398C
Copy CRC 4885398C
Track not present in AccurateRip database
Copy OK
Track 3
Filename D:\Flac Rips\03 - Triad Song.wav
Peak level 94.0 %
Extraction speed 5.5 X
Track quality 100.0 %
Test CRC 7517BF24
Copy CRC 7517BF24
Track not present in AccurateRip database
Copy OK
Track 4
Filename D:\Flac Rips\04 - Father And Sun.wav
Peak level 94.0 %
Extraction speed 6.1 X
Track quality 100.0 %
Test CRC 7A6974CF
Copy CRC 7A6974CF
Track not present in AccurateRip database
Copy OK
Track 5
Filename D:\Flac Rips\05 - Wolfgang's Waltz.wav
Peak level 93.9 %
Extraction speed 6.5 X
Track quality 100.0 %
Test CRC 123EC02D
Copy CRC 123EC02D
Track not present in AccurateRip database
Copy OK
Track 6
Filename D:\Flac Rips\06 - Superoony.wav
Peak level 94.8 %
Extraction speed 5.9 X
Track quality 99.9 %
Test CRC ABA5C574
Copy CRC ABA5C574
Track not present in AccurateRip database
Copy OK
Track 7
Filename D:\Flac Rips\07 - Boogaloo.wav
Peak level 94.4 %
Extraction speed 7.3 X
Track quality 100.0 %
Test CRC 9714A306
Copy CRC 9714A306
Track not present in AccurateRip database
Copy OK
Track 8
Filename D:\Flac Rips\08 - Den Wheeler, Den Kenny.wav
Peak level 94.1 %
Extraction speed 7.6 X
Track quality 100.0 %
Test CRC 7AA374D4
Copy CRC 7AA374D4
Track not present in AccurateRip database
Copy OK
Track 9
Filename D:\Flac Rips\09 - Ending Music.wav
Peak level 73.2 %
Extraction speed 5.7 X
Track quality 100.0 %
Test CRC A139C73F
Copy CRC A139C73F
Track not present in AccurateRip database
Copy OK
Track 10
Filename D:\Flac Rips\10 - Oak.wav
Peak level 82.4 %
Extraction speed 6.2 X
Track quality 99.9 %
Test CRC 50F8EF01
Copy CRC 50F8EF01
Track not present in AccurateRip database
Copy OK
None of the tracks are present in the AccurateRip database
No errors occurred
End of status report
---- CUETools DB Plugin V2.1.6
[CTDB TOCID: 5WSea1bX9WLg6t3WIGvTLm5mC0c-] found
Submit result: 5WSea1bX9WLg6t3WIGvTLm5mC0c- has been confirmed
Track | CTDB Status
1 | (4/4) Accurately ripped
2 | (4/4) Accurately ripped
3 | (4/4) Accurately ripped
4 | (4/4) Accurately ripped
5 | (4/4) Accurately ripped
6 | (4/4) Accurately ripped
7 | (4/4) Accurately ripped
8 | (4/4) Accurately ripped
9 | (4/4) Accurately ripped
10 | (4/4) Accurately ripped
==== Log checksum F744CD577707214174A0A322E3252EE190A968D48A8C56986AAD4D62C98CB2EC ====
Cue Sheet (.cue):
REM GENRE Jazz
REM DATE 2016
REM DISCID 9410150A
REM COMMENT "ExactAudioCopy v1.1"
PERFORMER "Wolfgang Muthspiel"
TITLE "Rising Grace"
FILE "01 - Rising Grace.wav" WAVE
TRACK 01 AUDIO
TITLE "Rising Grace"
PERFORMER "Wolfgang Muthspiel"
INDEX 01 00:00:00
FILE "02 - Intensive Care.wav" WAVE
TRACK 02 AUDIO
TITLE "Intensive Care"
PERFORMER "Wolfgang Muthspiel"
INDEX 01 00:00:00
FILE "03 - Triad Song.wav" WAVE
TRACK 03 AUDIO
TITLE "Triad Song"
PERFORMER "Wolfgang Muthspiel"
INDEX 01 00:00:00
FILE "04 - Father and Sun.wav" WAVE
TRACK 04 AUDIO
TITLE "Father and Sun"
PERFORMER "Wolfgang Muthspiel"
INDEX 01 00:00:00
FILE "05 - Wolfgang's Waltz.wav" WAVE
TRACK 05 AUDIO
TITLE "Wolfgang's Waltz"
PERFORMER "Wolfgang Muthspiel"
INDEX 01 00:00:00
FILE "06 - Superonny.wav" WAVE
TRACK 06 AUDIO
TITLE "Superonny"
PERFORMER "Wolfgang Muthspiel"
INDEX 01 00:00:00
INDEX 02 06:44:05
FILE "07 - Boogaloo.wav" WAVE
TRACK 07 AUDIO
TITLE "Boogaloo"
PERFORMER "Wolfgang Muthspiel"
INDEX 01 00:00:00
FILE "08 - Den Wheeler, Den Kenny.wav" WAVE
TRACK 08 AUDIO
TITLE "Den Wheeler, Den Kenny"
PERFORMER "Wolfgang Muthspiel"
INDEX 01 00:00:00
FILE "09 - Ending Music.wav" WAVE
TRACK 09 AUDIO
TITLE "Ending Music"
PERFORMER "Wolfgang Muthspiel"
INDEX 01 00:00:00
FILE "10 - Oak.wav" WAVE
TRACK 10 AUDIO
TITLE "Oak"
PERFORMER "Wolfgang Muthspiel"
INDEX 01 00:00:00
Отчёт auCDtect Task manager:
-----------------------
DON'T MODIFY THIS FILE
-----------------------
PERFORMER: auCDtect Task Manager, ver. 1.6.0 RC1 build 1.6.0.1
Copyright (c) 2008-2010 y-soft. All rights reserved
http://y-soft.org
ANALYZER: auCDtect: CD records authenticity detector, version 0.8.2
Copyright (c) 2004 Oleg Berngardt. All rights reserved.
Copyright (c) 2004 Alexander Djourik. All rights reserved.
FILE: 10 - Oak.flac
Size: 19435919 Hash: EC5440151E99097529F37C7BD0CD62C0 Accuracy: -m0
Conclusion: CDDA 100%
Signature: E989A652AE00F0E0BAE4D9301B6859D6F3EAF62E
FILE: 09 - Ending Music.flac
Size: 6198049 Hash: F4054E65FF017B825940FC591BB5E9D2 Accuracy: -m0
Conclusion: CDDA 100%
Signature: 9CBCE6D75A344492118330C2EB2548E2890E515F
FILE: 08 - Den Wheeler, Den Kenny.flac
Size: 39208746 Hash: D7BFA9A728E04DFAD2B23BCA6E3E38A1 Accuracy: -m0
Conclusion: CDDA 100%
Signature: B4DA1E4609305D04F1D2B415582D276A9B03A7EE
FILE: 07 - Boogaloo.flac
Size: 45915754 Hash: 2C5A5A5796C86DB6756409FA399CCE2B Accuracy: -m0
Conclusion: CDDA 100%
Signature: 2089557D02287C3F298463FE705302939EF78887
FILE: 06 - Superonny.flac
Size: 41043092 Hash: DC8055F32B1AF797CB55552D096A9BC6 Accuracy: -m0
Conclusion: CDDA 100%
Signature: 045309052A20E3DCC482A46B29A4518DBEBE13EB
FILE: 05 - Wolfgang's Waltz.flac
Size: 45651128 Hash: 72939430040F2CEF972DEF047BB19932 Accuracy: -m0
Conclusion: CDDA 100%
Signature: 231620391DC1FD842B8F4866C552A9D293858463
FILE: 04 - Father and Sun.flac
Size: 43086505 Hash: 98C20DB1DA59706154A699086B241E41 Accuracy: -m0
Conclusion: CDDA 100%
Signature: 1B5B9A2407CA87C5AADB538C5F41E27B20664EC6
FILE: 03 - Triad Song.flac
Size: 42735872 Hash: E48CA11CA1B9672849E61EB38A4CBE30 Accuracy: -m0
Conclusion: CDDA 99%
Signature: 1FFE0EEC30BB94784C8F3BDB937C85C63555AB8B
FILE: 02 - Intensive Care.flac
Size: 44410368 Hash: 5735AD08560A75CE8B747ACBDE1E55E4 Accuracy: -m0
Conclusion: CDDA 100%
Signature: C2D86DA1E133631BC32D3946630FEDE6B31E0E19
FILE: 01 - Rising Grace.flac
Size: 31568842 Hash: 2D52AF555932BBB26A706FDAC79C01D6 Accuracy: -m0
Conclusion: CDDA 100%
Signature: AFD4F45F5F178AC1924E4F1EDD3A5A3F11988006
Загрузка...
[Профиль] [ЛС]
Показать сообщения:    
Ответить на тему

Текущее время: 14-Ноя 10:39

Часовой пояс: UTC + 4



Вы не можете начинать темы
Вы не можете отвечать на сообщения
Вы не можете редактировать свои сообщения
Вы не можете удалять свои сообщения
Вы не можете голосовать в опросах
Вы не можете прикреплять файлы к сообщениям
Вы не можете скачивать файлы