(Synthpop, New Wave) Talk Talk - Asides Besides (1998) Compilation, 2CD - 1998, FLAC (image+.cue), lossless

Ответить на тему
 
Автор Сообщение

Direktor_49 ®

Стаж: 3 года 10 месяцев

Сообщений: 321

Откуда: Калининград

Создавать темы 03-Ноя-2016 06:23

[Цитировать]

Talk Talk - Asides Besides (1998) Compilation, 2CD
Жанр: Synthpop, New Wave
Носитель: CD
Год издания: 1998
Издатель (лейбл): EMI
Номер по каталогу: 7243 8 54807 2 0
Аудиокодек: FLAC (*.flac)
Тип рипа: image+.cue
Битрейт аудио: lossless
Источник (релизер): mezinec72
Наличие сканов в содержимом раздачи: да
CD 1. Asides - The Longer Versions:
Продолжительность: 01:16:59
Треклист:
01. Talk Talk (Extended Version) 4:34
02. Today (Extended Version) 4:33
03. My Foolish Friend (Extended Version) 5:30
04. It's My Life (Extended Version) 6:19
05. Such A Shame (Extended Mix) 7:00
06. Such A Shame (Dub Mix) 6:33
07. Dum Dum Girl (12" Mix) 5:23
08. Without You (12" Mix) 5:55
09. Life's What You Make It (Extended Mix) 7:01
10. Living In Another World (Extended Remix) 8:58
11. Pictures Of Bernadette (Dance Mix) 8:06
12. Happiness Is Easy (12" Mix) 7:02
Отчёт EAC:
Exact Audio Copy V1.0 beta 3 from 29. August 2011
EAC extraction logfile from 1. March 2012, 18:37
Talk Talk / Asides Besides [Disc One: The Longer Versions]
Used drive : MATSHITABD-MLT UJ240ES Adapter: 0 ID: 1
Read mode : Secure
Utilize accurate stream : Yes
Defeat audio cache : Yes
Make use of C2 pointers : No
Read offset correction : 103
Overread into Lead-In and Lead-Out : No
Fill up missing offset samples with silence : Yes
Delete leading and trailing silent blocks : No
Null samples used in CRC calculations : Yes
Used interface : Native Win32 interface for Win NT & 2000
Used output format : User Defined Encoder
Selected bitrate : 768 kBit/s
Quality : High
Add ID3 tag : No
Command line compressor : C:\Program Files (x86)\Exact Audio Copy\FLAC\FLAC.EXE
Additional command line options : -V -8 %source%
TOC of the extracted CD
Track | Start | Length | Start sector | End sector
---------------------------------------------------------
1 | 0:00.00 | 4:34.47 | 0 | 20596
2 | 4:34.47 | 4:33.48 | 20597 | 41119
3 | 9:08.20 | 5:30.07 | 41120 | 65876
4 | 14:38.27 | 6:19.23 | 65877 | 94324
5 | 20:57.50 | 7:00.72 | 94325 | 125896
6 | 27:58.47 | 6:33.40 | 125897 | 155411
7 | 34:32.12 | 5:23.50 | 155412 | 179686
8 | 39:55.62 | 5:55.15 | 179687 | 206326
9 | 45:51.02 | 7:01.18 | 206327 | 237919
10 | 52:52.20 | 8:58.27 | 237920 | 278296
11 | 61:50.47 | 8:06.23 | 278297 | 314769
12 | 69:56.70 | 7:02.15 | 314770 | 346434
Range status and errors
Selected range
Filename C:\Talk Talk - Asides Besides (1998) [EMI 7243 854807]\CD 1\Talk Talk - Asides Besides [Disc One- The Longer Versions].wav
Peak level 95.2 %
Extraction speed 4.6 X
Range quality 99.9 %
Test CRC 95D97506
Copy CRC 95D97506
Copy OK
No errors occurred
AccurateRip summary
Track 1 accurately ripped (confidence 6) [5B891B01] (AR v2)
Track 2 accurately ripped (confidence 6) [4A3E9C37] (AR v2)
Track 3 accurately ripped (confidence 6) [D88395B4] (AR v2)
Track 4 accurately ripped (confidence 6) [FEA79010] (AR v2)
Track 5 accurately ripped (confidence 6) [EAA153E6] (AR v2)
Track 6 accurately ripped (confidence 6) [068D9551] (AR v2)
Track 7 accurately ripped (confidence 6) [943AAFA0] (AR v2)
Track 8 accurately ripped (confidence 6) [8AC032F1] (AR v2)
Track 9 accurately ripped (confidence 6) [102B73AC] (AR v2)
Track 10 accurately ripped (confidence 6) [1A3A1F1C] (AR v2)
Track 11 accurately ripped (confidence 6) [FB6D7C5E] (AR v2)
Track 12 accurately ripped (confidence 6) [6B835414] (AR v2)
All tracks accurately ripped
End of status report
==== Log checksum FEDDD73BBB1D03E0C9B28657F102DE00F2A32D1F0AFE59AAA7D04D0F8618DC65 ====
Cue Sheet (.cue):
REM GENRE Alternative
REM DATE 1998
REM DISCID B0120B0C
REM COMMENT "ExactAudioCopy v1.0b3"
CATALOG 0724385480829
PERFORMER "Talk Talk"
TITLE "Asides Besides [Disc One: The Longer Versions]"
FILE "Talk Talk - Asides Besides [Disc One- The Longer Versions].flac" WAVE
TRACK 01 AUDIO
TITLE "Talk Talk [Extended Version]"
PERFORMER "Talk Talk"
ISRC GBAYE8200027
INDEX 01 00:00:00
TRACK 02 AUDIO
TITLE "Today [Extended Version]"
PERFORMER "Talk Talk"
ISRC GBAYE8200028
INDEX 00 04:33:20
INDEX 01 04:34:47
TRACK 03 AUDIO
TITLE "My Foolish Friend [Extended Version]"
PERFORMER "Talk Talk"
ISRC GBAYE8300029
INDEX 01 09:08:20
TRACK 04 AUDIO
TITLE "It's My Life [Extended Version]"
PERFORMER "Talk Talk"
ISRC GBAYE8300030
INDEX 01 14:38:27
TRACK 05 AUDIO
TITLE "Such A Shame [Extended Mix]"
PERFORMER "Talk Talk"
ISRC GBAYE8300031
INDEX 00 20:56:30
INDEX 01 20:57:50
TRACK 06 AUDIO
TITLE "Such A Shame [Dub Mix]"
PERFORMER "Talk Talk"
ISRC GBAYE8300032
INDEX 00 27:57:10
INDEX 01 27:58:47
TRACK 07 AUDIO
TITLE "Dum Dum Girl [12' Mix]"
PERFORMER "Talk Talk"
ISRC GBAYE8400037
INDEX 00 34:31:17
INDEX 01 34:32:12
TRACK 08 AUDIO
TITLE "Without You [12' Mix]"
PERFORMER "Talk Talk"
ISRC GBAYE8400038
INDEX 00 39:53:70
INDEX 01 39:55:62
TRACK 09 AUDIO
TITLE "Life's What You Make It [Extended Mix]"
PERFORMER "Talk Talk"
ISRC GBAYE8600027
INDEX 00 45:49:20
INDEX 01 45:51:02
TRACK 10 AUDIO
TITLE "Living In Another World [Extended Remix]"
PERFORMER "Talk Talk"
ISRC GBAYE8600028
INDEX 00 52:49:55
INDEX 01 52:52:20
TRACK 11 AUDIO
TITLE "Pictures Of Bernadette [Dance Mix]"
PERFORMER "Talk Talk"
ISRC GBAYE8600029
INDEX 00 61:49:52
INDEX 01 61:50:47
TRACK 12 AUDIO
TITLE "Hapiness Is Easy [12' Mix]"
PERFORMER "Talk Talk"
ISRC GBAYE8600030
INDEX 00 69:56:07
INDEX 01 69:56:70
Отчёт auCDtect Task manager:
-----------------------
DON'T MODIFY THIS FILE
-----------------------
PERFORMER: auCDtect Task Manager, ver. 1.6.0 RC1 build 1.6.0.1
Copyright (c) 2008-2010 y-soft. All rights reserved
http://y-soft.org
ANALYZER: auCDtect: CD records authenticity detector, version 0.8.2
Copyright (c) 2004 Oleg Berngardt. All rights reserved.
Copyright (c) 2004 Alexander Djourik. All rights reserved.
FILE: Talk Talk - Asides Besides [Disc One- The Longer Versions].flac
Size: 522391823 Hash: A425344E7290F07FCE6CA8B1FDD94D65 Accuracy: -m0
Conclusion: CDDA 99%
Signature: 5AA50CF39B09C6DAD8BAFE24A5C5FD23E78C295B
CD 2. Besides - The Extra Tracks:
Продолжительность: 01:06:02
Треклист:
01. Talk Talk (Demo Version) 3:28
02. Mirror Man (Demo Version) 3:30
03. Candy (Demo Version) 4:24
04. Strike Up The Band 2:45
05. ? 4:08
06. My Foolish Friend 3:19
07. Call In The Night Boy (Piano Version) 3:49
08. Why Is It So Hard? (7" Version) 4:04
09. Again A Game… Again 4:11
10. Without You 3:26
11. Dum Dum Girl (U.S. Mix) 3:39
12. It's Getting Late In The Evening 5:45
13. For What It's Worth 5:21
14. Pictures Of Bernadette 5:03
15. Eden (Edit) 4:21
16. John Cope 4:39
Отчёт EAC:
Exact Audio Copy V1.0 beta 3 from 29. August 2011
EAC extraction logfile from 1. March 2012, 19:20
Talk Talk / Asides Besides - CD2
Used drive : MATSHITABD-MLT UJ240ES Adapter: 0 ID: 1
Read mode : Secure
Utilize accurate stream : Yes
Defeat audio cache : Yes
Make use of C2 pointers : No
Read offset correction : 103
Overread into Lead-In and Lead-Out : No
Fill up missing offset samples with silence : Yes
Delete leading and trailing silent blocks : No
Null samples used in CRC calculations : Yes
Used interface : Native Win32 interface for Win NT & 2000
Used output format : User Defined Encoder
Selected bitrate : 768 kBit/s
Quality : High
Add ID3 tag : No
Command line compressor : C:\Program Files (x86)\Exact Audio Copy\FLAC\FLAC.EXE
Additional command line options : -V -8 %source%
TOC of the extracted CD
Track | Start | Length | Start sector | End sector
---------------------------------------------------------
1 | 0:00.00 | 3:28.15 | 0 | 15614
2 | 3:28.15 | 3:30.32 | 15615 | 31396
3 | 6:58.47 | 4:24.65 | 31397 | 51261
4 | 11:23.37 | 2:45.30 | 51262 | 63666
5 | 14:08.67 | 4:08.65 | 63667 | 82331
6 | 18:17.57 | 3:19.60 | 82332 | 97316
7 | 21:37.42 | 3:49.50 | 97317 | 114541
8 | 25:27.17 | 4:04.63 | 114542 | 132904
9 | 29:32.05 | 4:11.67 | 132905 | 151796
10 | 33:43.72 | 3:26.00 | 151797 | 167246
11 | 37:09.72 | 3:39.63 | 167247 | 183734
12 | 40:49.60 | 5:45.65 | 183735 | 209674
13 | 46:35.50 | 5:21.67 | 209675 | 233816
14 | 51:57.42 | 5:03.50 | 233817 | 256591
15 | 57:01.17 | 4:21.65 | 256592 | 276231
16 | 61:23.07 | 4:39.00 | 276232 | 297156
Range status and errors
Selected range
Filename C:\Talk Talk - Asides Besides (1998) [EMI 7243 854807]\CD 2\Talk Talk - Asides Besides - CD2.wav
Peak level 96.3 %
Extraction speed 4.4 X
Range quality 99.9 %
Test CRC 66E88453
Copy CRC 66E88453
Copy OK
No errors occurred
AccurateRip summary
Track 1 accurately ripped (confidence 6) [FBBCD706] (AR v2)
Track 2 accurately ripped (confidence 6) [C7059767] (AR v2)
Track 3 accurately ripped (confidence 6) [CDB0FC5E] (AR v2)
Track 4 accurately ripped (confidence 6) [D898D98F] (AR v2)
Track 5 accurately ripped (confidence 6) [BF8CE53B] (AR v2)
Track 6 accurately ripped (confidence 6) [9E6415EC] (AR v2)
Track 7 accurately ripped (confidence 6) [6E27D873] (AR v2)
Track 8 accurately ripped (confidence 6) [538DDF87] (AR v2)
Track 9 accurately ripped (confidence 6) [AAA1F0C1] (AR v2)
Track 10 accurately ripped (confidence 6) [065B2284] (AR v2)
Track 11 accurately ripped (confidence 6) [CEF92C51] (AR v2)
Track 12 accurately ripped (confidence 6) [75C983F7] (AR v2)
Track 13 accurately ripped (confidence 6) [92E3D220] (AR v2)
Track 14 accurately ripped (confidence 6) [84AEB2B4] (AR v2)
Track 15 accurately ripped (confidence 6) [1B18D272] (AR v2)
Track 16 accurately ripped (confidence 6) [CF90FC5D] (AR v2)
All tracks accurately ripped
End of status report
==== Log checksum 9604454A7FD036CAB9C2A951419E116977B399A9574DA5CE90537EB47E119089 ====
Cue Sheet (.cue):
REM GENRE Alternative
REM DATE 1998
REM DISCID DD0F7A10
REM COMMENT "ExactAudioCopy v1.0b3"
CATALOG 0724385480928
PERFORMER "Talk Talk"
TITLE "Asides Besides - CD2"
FILE "Talk Talk - Asides Besides - CD2.flac" WAVE
TRACK 01 AUDIO
TITLE "Talk Talk (Demo Version)"
PERFORMER "Talk Talk"
ISRC GBAYE8100007
INDEX 01 00:00:00
TRACK 02 AUDIO
TITLE "Mirror man (Demo Version)"
PERFORMER "Talk Talk"
ISRC GBAYE8100008
INDEX 00 03:26:55
INDEX 01 03:28:15
TRACK 03 AUDIO
TITLE "Candy (Demo Version)"
PERFORMER "Talk Talk"
ISRC GBAYE8100009
INDEX 00 06:57:32
INDEX 01 06:58:47
TRACK 04 AUDIO
TITLE "Strike up the band"
PERFORMER "Talk Talk"
ISRC GBAYE8400047
INDEX 00 11:22:10
INDEX 01 11:23:37
TRACK 05 AUDIO
TITLE "? [punto di domanda]"
PERFORMER "Talk Talk"
ISRC GBAYE8200043
INDEX 00 14:08:00
INDEX 01 14:08:67
TRACK 06 AUDIO
TITLE "My foolish friend"
PERFORMER "Talk Talk"
ISRC GBAYE8300033
INDEX 00 18:17:47
INDEX 01 18:17:57
TRACK 07 AUDIO
TITLE "Call in the night boy (Piano Version)"
PERFORMER "Talk Talk"
ISRC GBAYE8300034
INDEX 00 21:36:70
INDEX 01 21:37:42
TRACK 08 AUDIO
TITLE "Why is it so hard?"
PERFORMER "Talk Talk"
ISRC GBAYE8400048
INDEX 01 25:27:17
TRACK 09 AUDIO
TITLE "Again a game ... again"
PERFORMER "Talk Talk"
ISRC GBAYE8300035
INDEX 00 29:31:07
INDEX 01 29:32:05
TRACK 10 AUDIO
TITLE "Without you"
PERFORMER "Talk Talk"
ISRC GBAYE8400049
INDEX 00 33:43:45
INDEX 01 33:43:72
TRACK 11 AUDIO
TITLE "Dum Dum girl (U.S. Mix)"
PERFORMER "Talk Talk"
ISRC GBAYE8400039
INDEX 00 37:09:20
INDEX 01 37:09:72
TRACK 12 AUDIO
TITLE "It's getting late in the evening"
PERFORMER "Talk Talk"
ISRC GBAYE8600031
INDEX 00 40:49:17
INDEX 01 40:49:60
TRACK 13 AUDIO
TITLE "For what's worth"
PERFORMER "Talk Talk"
INDEX 00 46:33:60
INDEX 01 46:35:50
TRACK 14 AUDIO
TITLE "Pictures of Bernadette"
PERFORMER "Talk Talk"
ISRC GBAYE8600032
INDEX 00 51:55:62
INDEX 01 51:57:42
TRACK 15 AUDIO
TITLE "Eden (Edit)"
PERFORMER "Talk Talk"
ISRC GBAYE8800031
INDEX 00 56:58:62
INDEX 01 57:01:17
TRACK 16 AUDIO
TITLE "John Cope"
PERFORMER "Talk Talk"
ISRC GBAYE8800032
INDEX 00 61:21:52
INDEX 01 61:23:07
Отчёт auCDtect Task manager:
-----------------------
DON'T MODIFY THIS FILE
-----------------------
PERFORMER: auCDtect Task Manager, ver. 1.6.0 RC1 build 1.6.0.1
Copyright (c) 2008-2010 y-soft. All rights reserved
http://y-soft.org
ANALYZER: auCDtect: CD records authenticity detector, version 0.8.2
Copyright (c) 2004 Oleg Berngardt. All rights reserved.
Copyright (c) 2004 Alexander Djourik. All rights reserved.
FILE: Talk Talk - Asides Besides - CD2.flac
Size: 421818885 Hash: B6D6EFE8664DD531FC58B859DB139316 Accuracy: -m0
Conclusion: CDDA 100%
Signature: ECCD87B3245C835097E1EBEA36634736E394A9B4[/pre]
Об альбоме.
Asides Besides состоит из двух дисков, первый из которых содержит ремиксы (большинство из них уже ранее появлялись на незаконно выпущенном альбоме, History Revisited), а также представляет собой особую ценность для фанатов. Второй диск состоит из демо-версий, записанных в 1981 году — «Mirror Man», «Talk Talk» и «Candy», кроме того, на диске имеются редкие композиции: «Why Is it So Hard?», входившая в саундтрек к фильму First Born, «My Foolish Friend», американский ремикс на «Dum Dum Girl» и изменённая версия «Eden». Но настоящую ценность на втором диске представляют песни, располагавшиеся на б-сайдах различных синглов группы, хотя по звучанию они не такие «мощные», как те композиции, которые брались для б-сайдов из альбомов Talk Talk. Однако эти композиции раскрывают экспериментальную сторону позднего творчества коллектива. Asides Besides может вызывать лишь интерес у поклонников раннего творчества Talk Talk, но для других — это безусловно ценная коллекция — отмечал в своем обзоре диска рецензент Крис Вудстра из Allmusic. (Wikipedia)
[Профиль] [ЛС]
Показать сообщения:    
Ответить на тему

Текущее время: 28-Сен 17:48

Часовой пояс: UTC + 3



Вы не можете начинать темы
Вы не можете отвечать на сообщения
Вы не можете редактировать свои сообщения
Вы не можете удалять свои сообщения
Вы не можете голосовать в опросах
Вы не можете прикреплять файлы к сообщениям
Вы не можете скачивать файлы