Крым. Путь на Родину. Фильм Андрея Кондрашова (2015.03.15) HDTVRip

Ответить на тему
 
Автор Сообщение

MIO2008 ®

Стаж: 8 лет 3 месяца

Сообщений: 2180

Откуда: СССР

Создавать темы 16-Мар-2015 16:44

[Цитировать]

Крым. Путь на родину. Фильм Андрея Кондрашова(Сергей Краус)- Дата выхода: 15/03/2015
Страна: Россия
Жанр: Документальный
Автор: Андрей Кондрашов
Режиссер-постановщик: Сергей Краус
Описание: Полнометражная документальная лента была задумана, чтобы сохранить для истории каждый значимый эпизод событий, происходивших в Крыму весной 2014 года. Съемки продолжались 8 месяцев и охватили Севастополь и Форос, Симферополь и Керчь, Ялту и Бахчисарай; Феодосию, Джанкой, Алушту и еще десяток населенных пунктов Крыма. По горячим следам был записан большой разговор с Владимиром Путиным, а потом еще больше полусотни интервью с участниками и свидетелями Крымской весны. С чего все началось? Как Россия получила официальное обращение от легитимного президента Украины с просьбой спасти ему жизнь?
Это была операция, аналогов которой не было в новейшей мировой истории. Все подробности того, как за несколько километров до засады с пулеметами был тайно эвакуирован Виктор Янукович, спустя год открывает сам Владимир Путин, и в фильме этому посвящена детальная реконструкция.
"Это была ночь с 22 на 23 февраля, закончили около 7 часов утра, и я всех отпустил и пошел спать в 7 утра. И, расставаясь, не скрою, расставаясь, перед тем как все разошлись, я всем моим коллегам, а их было четверо, сказал, что ситуация развернулась таким образом на Украине, что мы вынуждены начать работу по возврату Крыма в состав России. Потому что мы не можем бросить эту территорию и людей, которые там проживают, на произвол судьбы, под каток националистов. И поставил определенные задачи, сказал, что и как мы должны делать, но сразу же подчеркнул, что мы будем делать это только в том случае, если будем абсолютно убеждены в том, что этого хотят сами люди, которые проживают в Крыму", — рассказал в интервью Владимир Путин.
Поэтому первое распоряжение, которое было отдано президентом, касалось не спецслужб и минобороны, а собственной Администрации, специалисты которой совместно с социологами провели в Крыму закрытый опрос. На какие вопросы отвечали крымчане, если даже слово "референдум" еще не фигурировало?-Продолжительность: 02:24:53
Качество видео: HDTVRip
Видеокодек: XviD
Битрейт видео: 1999 kb/s
Размер кадра: 720x400
Аудиокодек: AC3 2.0
Битрейт аудио: 192 kb/s-
далее
"Выяснилось, что желающих присоединиться к России там 75% от общего состава. Вы понимаете, был проведен закрытый опрос, вне контекста возможного присоединения. Для меня стало очевидным, что если мы подойдем к этому, то уровень или количество тех, кто бы хотел, чтобы это историческое событие произошло, будет гораздо выше", — отметил российский президент.
Корсуньский погром. Сколько людей погибло и пропало без вести, после того как украинские националисты напали на автоколонну крымчан и сожгли их автобусы? Как формировалось ополчение Крыма. Кто был его лидером?
Как впервые появились в Крыму вежливые люди? Кто это был, чьим приказом они были отправлены на полуостров? И сколько времени заняла спецоперация, в результате которой в ночь на 27 февраля были взяты под охрану все ключевые здания органов власти?
"Конечная цель была не в захвате Крыма и не в какой-то аннексии. Конечная цель была в том, чтобы дать возможность людям выразить свое мнение по поводу того, как они хотят жить дальше. Говорю Вам совершенно откровенно, честно говорю Вам. Про себя подумал, если люди так захотят, значит, так тому и быть. Значит, они будут там с большей автономией, с какими-то правами, но в составе Украинского государства. Пусть так и будет. Но если они захотят по-другому, то мы не можем их бросить! Мы результаты референдума знаем. И мы поступили так, как были обязаны поступить!", — пояснил российский лидер.
Как умудрились без кровопролития разоружить 193 воинские части Украины в Крыму? В чем был секрет Командующего Черноморским Флотом, который приглашал украинских коллег на переговоры исключительно в Херсонес? Как удалось закрыть в бухтах корабли украинских ВМС? Но почему все-таки не обошлось без штурма и стрельбы в Феодосии?
Как Россия соприкоснулась в Крыму с подразделениями НАТО, а в море с военно-морскими силами ВМС? О чем Владимир Путин говорил в те дни с Бараком Обамой? И как попали в Крым наши береговые ракетные комплексы "Бастион", внезапно изменившие весь ход событий? Два откровенных интервью Владимира Путина и все эпизоды крымской весны, которые определили ход новейшей истории России - смотрите в фильме "Крым. Путь на Родину".
MediaInfo
Общее
Полное имя : D:\Раздачи\Крым.Путь.на.Родину.Фильм.Андрея.Кондрашова.(2015.03.15).HDTVRip.avi
Формат : AVI
Формат/Информация : Audio Video Interleave
Профиль формата : OpenDML
Размер файла : 2,23 Гбайт
Продолжительность : 2 ч. 24 м.
Общий поток : 2203 Кбит/сек
Программа кодирования : VirtualDubMod 1.5.10.3 | (build 2550/release)
Библиотека кодирования : VirtualDub build 32507/release
Видео
Идентификатор : 0
Формат : MPEG-4 Visual
Профиль формата : Advanced Simple@L5
Параметр BVOP формата : 1
Параметр QPel формата : Нет
Параметр GMC формата : Без точки перехода
Параметр матрицы формата : Выборочная
Идентификатор кодека : XVID
Идентификатор кодека/Подсказка : XviD
Продолжительность : 2 ч. 24 м.
Битрейт : 1999 Кбит/сек
Ширина : 720 пикселей
Высота : 400 пикселей
Соотношение сторон : 16:9
Частота кадров : 25,000 кадров/сек
Цветовое пространство : YUV
Субдискретизация насыщенности : 4:2:0
Битовая глубина : 8 бит
Тип развёртки : Прогрессивная
Метод сжатия : С потерями
Бит/(Пиксели*Кадры) : 0.278
Размер потока : 2,02 Гбайт (91%)
Библиотека кодирования : XviD 73
Аудио
Идентификатор : 1
Формат : AC-3
Формат/Информация : Audio Coding 3
Расширение режима : CM (complete main)
Параметр Endianness формата : Big
Идентификатор кодека : 2000
Продолжительность : 2 ч. 24 м.
Вид битрейта : Постоянный
Битрейт : 192 Кбит/сек
Каналы : 2 канала
Расположение каналов : Front: L R
Частота : 48,0 КГц
Битовая глубина : 16 бит
Метод сжатия : С потерями
Размер потока : 199 Мбайт (9%)
Выравнивание : Разделение по промежуткам
Продолжительность промежутка : 40 мс. (1,00 видеокадр)
Время предзагрузки промежутка : 500 мс.
[Профиль] [ЛС]

MIO2008 ®

Стаж: 8 лет 3 месяца

Сообщений: 2180

Откуда: СССР

Создавать темы 17-Мар-2015 09:10 (спустя 16 часов)

[Цитировать]

Перезалил торрент-файл по причине невозможности скачать, заодно заменил видео на более лучшее качество! Приношу свои извинения ah
[Профиль] [ЛС]
Показать сообщения:    
Ответить на тему

Текущее время: 28-Сен 17:53

Часовой пояс: UTC + 3



Вы не можете начинать темы
Вы не можете отвечать на сообщения
Вы не можете редактировать свои сообщения
Вы не можете удалять свои сообщения
Вы не можете голосовать в опросах
Вы не можете прикреплять файлы к сообщениям
Вы не можете скачивать файлы