Бо / Bo (Ганс Херботс / Hans Herbots) [2011, триллер, драма, DVDRip, 480 х 208] [MVO]

Ответить на тему
 
Автор Сообщение

RUSSIA_23 ®

Стаж: 9 лет 4 месяца

Сообщений: 79

Откуда: Краснодар

Создавать темы 19-Июл-2012 16:11

[Цитировать]

Бо / Bo
Год выпуска: 2011
Страна: Бельгия
Жанр: триллер, драма
Продолжительность: 01:29:26
Перевод : Любительский многоголосый [RG.paravozik по субтитрам Max_Flexo]
Русские субтитры: нет
Режиссёр: Ганс Херботс / Hans Herbots-В ролях: Лаура Баллин, Петр Бастиансен, Миа Боелс, Пьер Калленс Яна Де Koкeр, Софи Де Рижки, Стефан Деганд, Вики Флорус, Ина Гертс-Описание: История о 15-летней девушке Деборе, которой надоело выпрашивать деньги у мамы и она хочет подзаработать. Познакомившись с 18-летней девушкой, которая сводит её с сутенером, Дебора осваивает профессию проститутки. Сначала было все хорошо и весело, а потом все скатилось в глубокую яму, из которой не так то легко выбраться.- -Качество: DVDRip
Формат: *.mp4
Видео кодек: H.264
аудио кодек: ААС
Разрешение: 480 х 208
Другие параметры видео: x264, 480x208, 630 Kbps, 25,000 fps, 0.252 bit/pixel
Аудио: AAC, 128 Кбит/сек, 2 канала(ов), 48,0 КГц, Front: L R
Вшитая обложка: есть
Доп. теги (режиссёр, актёры и т.д.): прописаны-
MediaInfo
Общее
Полное имя : C:\Users\Nuschrok\Desktop\Bo\Bo.DVDRip.2010.mp4
Формат : MPEG-4
Профиль формата : Base Media
Идентификатор кодека : isom
Размер файла : 484 Мбайт
Продолжительность : 1 ч. 29 м.
Общий поток : 756 Кбит/сек
Название фильма : Бо
Исполнитель : Ганс Херботс
Жанр : Thriller
Дата записи : 2011
Дата кодирования : UTC 2011-10-17 17:32:51
Дата пометки : UTC 2011-10-18 14:26:17
Программа кодирования : Yamb 2.1.0.0
Обложка : Yes
iTunMOVI : <?xml version="1.0" encoding="UTF-8"?> / <!DOCTYPE plist PUBLIC "-//Apple//DTD PLIST 1.0//EN" "http://www.apple.com/DTDs/PropertyList-1.0.dtd"> / <plist version="1.0"> / <dict> / <key>cast</key> / <array> / <dict> / <key>name</key> / <string>Лаура Баллин</string> / </dict> / <dict> / <key>name</key> / <string>Петр Бастиансен</string> / </dict> / <dict> / <key>name</key> / <string>Миа Боелс</string> / </dict> / <dict> / <key>name</key> / <string>Пьер Калленс Яна Де Koкeр</string> / </dict> / <dict> / <key>name</key> / <string>Софи Де Рижки</string> / </dict> / <dict> / <key>name</key> / <string>Стефан Деганд</string> / </dict> / <dict> / <key>name</key> / <string>Вики Флорус</string> / </dict> / <dict> / <key>name</key> / <string>Ина Гертс</string> / </dict> / </array> / <key>directors</key> / <array> / <dict> / <key>name</key> / <string>Ганс Херботс</string> / </dict> / </array> / <key>producers</key> / <array> / <dict> / <key>name</key> / <string>Берт Хамелинк</string> / </dict> / <dict> / <key>name</key> / <string>Като Маес</string> / </dict> / <dict> / <key>name</key> / <string>Фрэнк Ван Пассель</string> / </dict> / </array> / <key>screenwriters</key> / <array> / <dict> / <key>name</key> / <string>Hans Herbots</string> / </dict> / <dict> / <key>name</key> / <string>Nele Meirhaeghe</string> / </dict> / <dict> / <key>name</key> / <string>Christian Vervaet</string> / </dict> / </array> / </dict> / </plist>
desc : Очередной фильм о ТП, мечтающей жить красиво, за счет раздвигания ног. Сказка быстро заканчивается и начинается реальность,в которой баба понимает, что деньги надо зарабатыват умом,а не передком.
ldes : История о 15-летней девушке Деборе, которой надоело выпрашивать деньги у мамы и она хочет подзаработать. Познакомившись с 18-летней девушкой, которая сводит её с сутенером, Дебора осваивает профессию проститутки. Сначала было все хорошо и весело, а потом все скатилось в глубокую яму, из которой не так то легко выбраться.
stik : 9
Видео
Идентификатор : 1
Формат : AVC
Формат/Информация : Advanced Video Codec
Профиль формата : Baseline@L3.0
Параметр CABAC формата : Нет
Параметр ReFrames формата : 6 кадров
Идентификатор кодека : avc1
Идентификатор кодека/Информация : Advanced Video Coding
Продолжительность : 1 ч. 29 м.
Битрейт : 630 Кбит/сек
Максимальный битрейт : 2988 Кбит/сек
Ширина : 480 пикс.
Высота : 208 пикс.
Соотношение сторон : 2,35:1
Режим частоты кадров : Постоянный
Частота кадров : 25,000 кадр/сек
Цветовое пространство : YUV
Подвыборка цветности : 4:2:0
Битовая глубина : 8 бит
Тип развёртки : Прогрессивная
Бит/(Пиксели*Кадры) : 0.252
Размер потока : 400 Мбайт (83%)
Библиотека кодирования : x264 core 116 r2074 2641b9e
Настройки программы : cabac=0 / ref=6 / deblock=1:-1:-1 / analyse=0x1:0x111 / me=umh / subme=9 / psy=1 / psy_rd=1.00:0.00 / mixed_ref=1 / me_range=16 / chroma_me=1 / trellis=0 / 8x8dct=0 / cqm=0 / deadzone=21,11 / fast_pskip=0 / chroma_qp_offset=-2 / threads=12 / sliced_threads=0 / nr=0 / decimate=0 / interlaced=0 / bluray_compat=0 / constrained_intra=0 / bframes=0 / weightp=0 / keyint=250 / keyint_min=25 / scenecut=40 / intra_refresh=0 / rc_lookahead=60 / rc=2pass / mbtree=1 / bitrate=630 / ratetol=1.0 / qcomp=0.60 / qpmin=0 / qpmax=69 / qpstep=4 / cplxblur=20.0 / qblur=0.5 / vbv_maxrate=10000 / vbv_bufsize=10000 / nal_hrd=none / ip_ratio=1.40 / aq=1:0.80
Дата кодирования : UTC 2011-10-17 16:09:20
Дата пометки : UTC 2011-10-17 17:36:38
Аудио
Идентификатор : 2
Формат : AAC
Формат/Информация : Advanced Audio Codec
Профиль формата : LC
Идентификатор кодека : 40
Продолжительность : 1 ч. 29 м.
Вид битрейта : Переменный
Битрейт : 125 Кбит/сек
Максимальный битрейт : 197 Кбит/сек
Каналы : 2 канала
Расположение каналов : Front: L R
Частота : 48,0 КГц
Метод сжатия : С потерями
Размер потока : 80,1 Мбайт (17%)
Дата кодирования : UTC 2011-10-17 17:35:42
Дата пометки : UTC 2011-10-17 17:36:38
Скриншоты
[Профиль] [ЛС]
Показать сообщения:    
Ответить на тему

Текущее время: 23-Окт 13:40

Часовой пояс: UTC + 3



Вы не можете начинать темы
Вы не можете отвечать на сообщения
Вы не можете редактировать свои сообщения
Вы не можете удалять свои сообщения
Вы не можете голосовать в опросах
Вы не можете прикреплять файлы к сообщениям
Вы не можете скачивать файлы