Матч (Андрей Малюков) [2012, драма, спорт, DVDRip, 576x320]

Ответить на тему
 
Автор Сообщение

RUSSIA_23 ®

Стаж: 6 лет 4 месяца

Сообщений: 99

Откуда: Краснодар

Создавать темы 19-Июл-2012 16:45

[Цитировать]

Матч- -Год выпуска: 2012
Страна: Россия, Украина
Жанр: драма, спорт
Продолжительность: 01:57:36
Перевод : Не требуется
Русские субтитры: нет-Режиссёр: Андрей Малюков-В ролях: Сергей Безруков, Елизавета Боярская, Эдуард Безродный, Екатерина Климова, Дирк Мартенс, Александр Крыжановский, Александр Кобзарь, Сергей Романович, Игорь Гнездилов, Никита Тезин-Описание: 1942 год. Николай Раневич, вратарь и звезда киевского «Динамо», теряет самое дорогое — свободу, любимую девушку Анну и возможность играть в футбол. Анна спасает Николая из плена, но теперь они не могут быть вместе…
Немцы устраивают чемпионат по футболу между местными командами и сборной Вермахта. Раневич собирает друзей и вновь выходит на поле играть за свою честь, за любовь, за Родину!
-Качество: DVDRip
Формат: *.m4v
Видео кодек: H.264
аудио кодек: ААС
Разрешение: 576x320
Другие параметры видео: AVC at 850 Кбит/сек, 576 x 320 (1.800) at 25.000 fps
Аудио: AAC at 128 Кбит/сек, 2 канала, 48,0 КГц
Вшитая обложка: есть
Доп. теги (режиссёр, актёры и т.д.): прописаны
Телешоу/видеоклип : не требуется
Главы: нет
Серия/сезон: не требуется-
MediaInfo
Общее
Полное имя : E:\Match.m4v
Формат : MPEG-4
Профиль формата : Base Media / Version 2
Идентификатор кодека : mp42
Размер файла : 825 Мбайт
Продолжительность : 1 ч. 57 м.
Режим общего битрейта : Переменный
Общий поток : 981 Кбит/сек
Название фильма : Матч
Исполнитель : Андрей Малюков
Жанр : Drama
Дата записи : 2012-05-03
Дата кодирования : UTC 2012-06-22 09:44:17
Дата пометки : UTC 2012-06-22 10:27:52
Программа кодирования : HandBrake 0.9.6 2012022800
Обложка : Yes
iTunMOVI : <?xml version="1.0" encoding="UTF-8"?> / <!DOCTYPE plist PUBLIC "-//Apple//DTD PLIST 1.0//EN" "http://www.apple.com/DTDs/PropertyList-1.0.dtd"> / <plist version="1.0"> / <dict> / <key>cast</key> / <array> / <dict> / <key>name</key> / <string>Сергей Безруков</string> / </dict> / <dict> / <key>name</key> / <string>Елизавета Боярская</string> / </dict> / <dict> / <key>name</key> / <string>Эдуард Безродный</string> / </dict> / </array> / <key>directors</key> / <array> / <dict> / <key>name</key> / <string>Андрей Малюков</string> / </dict> / </array> / <key>producers</key> / <array> / <dict> / <key>name</key> / <string>Илья Неретин</string> / </dict> / <dict> / <key>name</key> / <string>Дмитрий Куликов</string> / </dict> / <dict> / <key>name</key> / <string>Тимофей Сергейцев</string> / </dict> / </array> / <key>screenwriters</key> / <array> / <dict> / <key>name</key> / <string>Тимофей Сергейцев</string> / </dict> / <dict> / <key>name</key> / <string>Игорь Сосна</string> / </dict> / <dict> / <key>name</key> / <string>Дмитрий Зверьков</string> / </dict> / </array> / </dict> / </plist>
desc : 1942 год. Николай Раневич, вратарь и звезда киевского «Динамо», теряет самое дорогое — свободу, любимую девушку Анну и возможность играть в футбол. Анна спасает Николая из плена, но теперь они не могут быть вместе…
ldes : 1942 год. Николай Раневич, вратарь и звезда киевского «Динамо», теряет самое дорогое — свободу, любимую девушку Анну и возможность играть в футбол. Анна спасает Николая из плена, но теперь они не могут быть вместе… / / Немцы устраивают чемпионат по футболу между местными командами и сборной Вермахта. Раневич собирает друзей и вновь выходит на поле играть за свою честь, за любовь, за Родину!
stik : 9
Видео
Идентификатор : 1
Формат : AVC
Формат/Информация : Advanced Video Codec
Профиль формата : Baseline@L2.1
Параметр CABAC формата : Нет
Параметр ReFrames формата : 4 кадра
Идентификатор кодека : avc1
Идентификатор кодека/Информация : Advanced Video Coding
Продолжительность : 1 ч. 57 м.
Вид битрейта : Переменный
Битрейт : 850 Кбит/сек
Ширина : 576 пикселей
Высота : 320 пикселей
Соотношение сторон : 16:9
Режим частоты кадров : Постоянный
Частота кадров : 25,000 кадров/сек
Цветовое пространство : YUV
Субдискретизация насыщенности : 4:2:0
Битовая глубина : 8 бит
Тип развёртки : Прогрессивная
Бит/(Пиксели*Кадры) : 0.184
Размер потока : 715 Мбайт (87%)
Библиотека кодирования : x264 core 120
Настройки программы : cabac=0 / ref=4 / deblock=1:0:0 / analyse=0x1:0x111 / me=umh / subme=8 / psy=1 / psy_rd=1.00:0.00 / mixed_ref=1 / me_range=16 / chroma_me=1 / trellis=0 / 8x8dct=0 / cqm=0 / deadzone=21,11 / fast_pskip=1 / chroma_qp_offset=-2 / threads=6 / sliced_threads=0 / nr=0 / decimate=1 / interlaced=0 / bluray_compat=0 / constrained_intra=0 / bframes=0 / weightp=0 / keyint=250 / keyint_min=25 / scenecut=40 / intra_refresh=0 / rc_lookahead=40 / rc=2pass / mbtree=1 / bitrate=850 / ratetol=1.0 / qcomp=0.60 / qpmin=3 / qpmax=69 / qpstep=4 / cplxblur=20.0 / qblur=0.5 / ip_ratio=1.40 / aq=1:1.00
Дата кодирования : UTC 2012-06-22 09:44:17
Дата пометки : UTC 2012-06-22 10:20:28
Основные цвета : BT.601-6 525, BT.1358 525, BT.1700 NTSC, SMPTE 170M
Характеристики трансфера : BT.709-5, BT.1361
Коэффициенты матрицы : BT.601-6 525, BT.1358 525, BT.1700 NTSC, SMPTE 170M
Аудио
Идентификатор : 2
Формат : AAC
Формат/Информация : Advanced Audio Codec
Профиль формата : LC
Идентификатор кодека : 40
Продолжительность : 1 ч. 57 м.
Вид битрейта : Переменный
Битрейт : 128 Кбит/сек
Максимальный битрейт : 236 Кбит/сек
Каналы : 2 канала
Расположение каналов : Front: L R
Частота : 48,0 КГц
Метод сжатия : С потерями
Размер потока : 108 Мбайт (13%)
Дата кодирования : UTC 2012-06-22 09:44:17
Дата пометки : UTC 2012-06-22 10:20:27
-
Скриншоты
Загрузка...
[Профиль] [ЛС]

vanchik

Стаж: 3 года 4 месяца

Сообщений: 2

Откуда: Челябинск

Создавать темы 10-Июл-2015 15:15 (спустя 2 года 11 месяцев)

[Цитировать]

Для того чтобы скинуть этот фильм нужен айтюнс
[Профиль] [ЛС]
Показать сообщения:    
Ответить на тему

Текущее время: 13-Ноя 22:41

Часовой пояс: UTC + 4



Вы не можете начинать темы
Вы не можете отвечать на сообщения
Вы не можете редактировать свои сообщения
Вы не можете удалять свои сообщения
Вы не можете голосовать в опросах
Вы не можете прикреплять файлы к сообщениям
Вы не можете скачивать файлы