(Rap) Легенды Про... - Две Стороны Одной Медали (2СD) - 2013, FLAC (tracks), lossless

Ответить на тему
 
Автор Сообщение

sergej644 ®

Стаж: 6 лет 3 месяца

Сообщений: 990

Создавать темы 16-Июл-2013 10:41

[Цитировать]

-Легенды Про... - Две Стороны Одной Медали (2СD)- Страна: Россия
Жанр: Rap
Год выпуска: 2013
Формат: FLAC (tracks)
Битрейт аудио: lossless
Продолжительность: 01:02:34+00:58:19
- -
Светлая сторона
01. Мои года (04:52)
02. Громкие разговоры (04:05)
03. Бутерброд (02:50)
04. Рингтон (03:03)
05. Повод смириться (02:58)
06. Somebody's love (04:38)
07. Кто знал (04:23)
08. Космос (06:07)
09. Лодка (04:12)
10. Вороны (03:55)
11. Прости (03:28)
12. Колыбельная района (04:11)
13. Воздух (05:23)
14. Виною всему слова (04:09)
15. Не последний трек (04:14)
-
Тёмная сторона
01. Оппозиция молчанию (03:18)
02. Побег (03:34)
03. Телек (04:36)
04. Гарри (03:31)
05. Go down (03:21)
06. Fuck dat (03:59)
07. X (03:15)
08. Хорошо (03:02)
09. Бесконечная пати (04:00)
10. Почему пустеют улицы (03:14)
11. Дверь (05:49)
12. Гиганты слова (03:30)
13. Толпы (feat. Искра) (03:38)
14. Одеяло (feat. iZReal) (05:42)
15. Снова (03:45)
- -
лог создания рипа
CD 1
Exact Audio Copy V1.0 beta 3 from 29. August 2011
Отчёт EAC об извлечении, выполненном 3. марта 2013, 23:16
Легенды Про... / Две Стороны Одной Медали
Дисковод: Optiarc DVD RW AD-7280S   Adapter: 0  ID: 0
Режим чтения                 : Достоверность
Использование точного потока : Да
Отключение кэша аудио        : Да
Использование указателей C2  : Нет
Коррекция смещения при чтении                     : 48
Способность читать области Lead-in и Lead-out     : Нет
Заполнение пропущенных сэмплов тишиной            : Да
Удаление блоков с тишиной в начале и конце        : Нет
При вычислениях CRC использовались нулевые сэмплы : Да
Интерфейс                                         : Встроенный Win32-интерфейс для Win NT/2000
Обработка зазоров                                 : Добавлено к предыдущему треку
Выходной формат          : Пользовательский кодировщик
Выбранный битрейт        : 128 kBit/s
Качество                 : Высокий
Добавление ID3-тега      : Нет
Утилита сжатия           : C:\Program Files (x86)\FLAC\flac.exe
Дополнительные параметры :  -V -8 -T "Genre=%genre%" -T "Artist=%artist%" -T "Title=%title%" -T "Album=%albumtitle%" -T "Date=%year%" -T "Tracknumber=%tracknr%" -T "Comment=%comment%" %source%
TOC извлечённого CD
     Трек |   Старт  | Длительность | Начальный сектор | Конечный сектор
    ---------------------------------------------------------------------
       1  |  0:00.00 |    4:52.19   |           0      |      21918
       2  |  4:52.19 |    4:05.50   |       21919      |      40343
       3  |  8:57.69 |    2:50.24   |       40344      |      53117
       4  | 11:48.18 |    3:03.32   |       53118      |      66874
       5  | 14:51.50 |    2:58.27   |       66875      |      80251
       6  | 17:50.02 |    4:38.08   |       80252      |     101109
       7  | 22:28.10 |    4:23.30   |      101110      |     120864
       8  | 26:51.40 |    6:07.04   |      120865      |     148393
       9  | 32:58.44 |    4:12.06   |      148394      |     167299
      10  | 37:10.50 |    3:55.63   |      167300      |     184987
      11  | 41:06.38 |    3:28.31   |      184988      |     200618
      12  | 44:34.69 |    4:11.66   |      200619      |     219509
      13  | 48:46.60 |    5:23.23   |      219510      |     243757
      14  | 54:10.08 |    4:09.60   |      243758      |     262492
      15  | 58:19.68 |    4:14.14   |      262493      |     281556
Трек  1
     Имя файла D:\не удалять!!\Легенды Про... - Две Стороны Одной Медали\Светлая сторона\01 Мои года.wav
     Длина предзазора  0:00:02.00
     Пиковый уровень 98.8 %
     Скорость извлечения 4.6 X
     Качество трека 100.0 %
     CRC теста F8142DA9
     CRC копии F8142DA9
     Трек не обнаружен в базе AccurateRip
     Копирование... OK
Трек  2
     Имя файла D:\не удалять!!\Легенды Про... - Две Стороны Одной Медали\Светлая сторона\02 Громкие разговоры.wav
     Длина предзазора  0:00:02.00
     Пиковый уровень 100.0 %
     Скорость извлечения 3.6 X
     Качество трека 99.9 %
     CRC теста 776FDFAC
     CRC копии 776FDFAC
     Трек не обнаружен в базе AccurateRip
     Копирование... OK
Трек  3
     Имя файла D:\не удалять!!\Легенды Про... - Две Стороны Одной Медали\Светлая сторона\03 Бутерброд.wav
     Длина предзазора  0:00:02.00
     Пиковый уровень 100.0 %
     Скорость извлечения 3.3 X
     Качество трека 99.9 %
     CRC теста 295F55F8
     CRC копии 295F55F8
     Трек не обнаружен в базе AccurateRip
     Копирование... OK
Трек  4
     Имя файла D:\не удалять!!\Легенды Про... - Две Стороны Одной Медали\Светлая сторона\04 Рингтон.wav
     Длина предзазора  0:00:02.00
     Пиковый уровень 100.0 %
     Скорость извлечения 5.4 X
     Качество трека 100.0 %
     CRC теста 9F65A6DE
     CRC копии 9F65A6DE
     Трек не обнаружен в базе AccurateRip
     Копирование... OK
Трек  5
     Имя файла D:\не удалять!!\Легенды Про... - Две Стороны Одной Медали\Светлая сторона\05 Повод смириться.wav
     Длина предзазора  0:00:02.00
     Пиковый уровень 100.0 %
     Скорость извлечения 5.7 X
     Качество трека 100.0 %
     CRC теста 31AE1E75
     CRC копии 31AE1E75
     Трек не обнаружен в базе AccurateRip
     Копирование... OK
Трек  6
     Имя файла D:\не удалять!!\Легенды Про... - Две Стороны Одной Медали\Светлая сторона\06 Somebody's love.wav
     Длина предзазора  0:00:02.00
     Пиковый уровень 100.0 %
     Скорость извлечения 6.4 X
     Качество трека 100.0 %
     CRC теста 07016B42
     CRC копии 07016B42
     Трек не обнаружен в базе AccurateRip
     Копирование... OK
Трек  7
     Имя файла D:\не удалять!!\Легенды Про... - Две Стороны Одной Медали\Светлая сторона\07 Кто знал.wav
     Длина предзазора  0:00:02.00
     Пиковый уровень 100.0 %
     Скорость извлечения 6.8 X
     Качество трека 100.0 %
     CRC теста 5053F08D
     CRC копии 5053F08D
     Трек не обнаружен в базе AccurateRip
     Копирование... OK
Трек  8
     Имя файла D:\не удалять!!\Легенды Про... - Две Стороны Одной Медали\Светлая сторона\08 Космос.wav
     Длина предзазора  0:00:02.00
     Пиковый уровень 100.0 %
     Скорость извлечения 7.4 X
     Качество трека 100.0 %
     CRC теста 47E4E4B5
     CRC копии 47E4E4B5
     Трек не обнаружен в базе AccurateRip
     Копирование... OK
Трек  9
     Имя файла D:\не удалять!!\Легенды Про... - Две Стороны Одной Медали\Светлая сторона\09 Лодка.wav
     Длина предзазора  0:00:02.00
     Пиковый уровень 100.0 %
     Скорость извлечения 7.6 X
     Качество трека 100.0 %
     CRC теста F73F4BDD
     CRC копии F73F4BDD
     Трек не обнаружен в базе AccurateRip
     Копирование... OK
Трек 10
     Имя файла D:\не удалять!!\Легенды Про... - Две Стороны Одной Медали\Светлая сторона\10 Вороны.wav
     Длина предзазора  0:00:02.00
     Пиковый уровень 100.0 %
     Скорость извлечения 7.7 X
     Качество трека 100.0 %
     CRC теста 0FB2C00E
     CRC копии 0FB2C00E
     Трек не обнаружен в базе AccurateRip
     Копирование... OK
Трек 11
     Имя файла D:\не удалять!!\Легенды Про... - Две Стороны Одной Медали\Светлая сторона\11 Прости.wav
     Длина предзазора  0:00:02.00
     Пиковый уровень 100.0 %
     Скорость извлечения 7.8 X
     Качество трека 100.0 %
     CRC теста 1F9F3927
     CRC копии 1F9F3927
     Трек не обнаружен в базе AccurateRip
     Копирование... OK
Трек 12
     Имя файла D:\не удалять!!\Легенды Про... - Две Стороны Одной Медали\Светлая сторона\12 Колыбельная района.wav
     Длина предзазора  0:00:02.00
     Пиковый уровень 100.0 %
     Скорость извлечения 8.2 X
     Качество трека 100.0 %
     CRC теста 11C27AA2
     CRC копии 11C27AA2
     Трек не обнаружен в базе AccurateRip
     Копирование... OK
Трек 13
     Имя файла D:\не удалять!!\Легенды Про... - Две Стороны Одной Медали\Светлая сторона\13 Воздух.wav
     Длина предзазора  0:00:02.00
     Пиковый уровень 100.0 %
     Скорость извлечения 8.7 X
     Качество трека 100.0 %
     CRC теста 48864323
     CRC копии 48864323
     Трек не обнаружен в базе AccurateRip
     Копирование... OK
Трек 14
     Имя файла D:\не удалять!!\Легенды Про... - Две Стороны Одной Медали\Светлая сторона\14 Виною всему слова.wav
     Длина предзазора  0:00:02.00
     Пиковый уровень 100.0 %
     Скорость извлечения 8.7 X
     Качество трека 100.0 %
     CRC теста 4EE2D40D
     CRC копии 4EE2D40D
     Трек не обнаружен в базе AccurateRip
     Копирование... OK
Трек 15
     Имя файла D:\не удалять!!\Легенды Про... - Две Стороны Одной Медали\Светлая сторона\15 Не последний трек.wav
     Длина предзазора  0:00:02.00
     Пиковый уровень 100.0 %
     Скорость извлечения 8.8 X
     Качество трека 100.0 %
     CRC теста C0182E79
     CRC копии C0182E79
     Трек не обнаружен в базе AccurateRip
     Копирование... OK
Ни одного трека нет в базе AccurateRip
Ошибок не произошло
Конец отчёта
CD 2
Exact Audio Copy V1.0 beta 3 from 29. August 2011
Отчёт EAC об извлечении, выполненном 3. марта 2013, 20:08
Легенды Про... / Две Стороны Одной Медали
Дисковод: Optiarc DVD RW AD-7280S   Adapter: 0  ID: 0
Режим чтения                 : Достоверность
Использование точного потока : Да
Отключение кэша аудио        : Да
Использование указателей C2  : Нет
Коррекция смещения при чтении                     : 48
Способность читать области Lead-in и Lead-out     : Нет
Заполнение пропущенных сэмплов тишиной            : Да
Удаление блоков с тишиной в начале и конце        : Нет
При вычислениях CRC использовались нулевые сэмплы : Да
Интерфейс                                         : Встроенный Win32-интерфейс для Win NT/2000
Обработка зазоров                                 : Добавлено к предыдущему треку
Выходной формат          : Пользовательский кодировщик
Выбранный битрейт        : 128 kBit/s
Качество                 : Высокий
Добавление ID3-тега      : Нет
Утилита сжатия           : C:\Program Files (x86)\FLAC\flac.exe
Дополнительные параметры :  -V -8 -T "Genre=%genre%" -T "Artist=%artist%" -T "Title=%title%" -T "Album=%albumtitle%" -T "Date=%year%" -T "Tracknumber=%tracknr%" -T "Comment=%comment%" %source%
TOC извлечённого CD
     Трек |   Старт  | Длительность | Начальный сектор | Конечный сектор
    ---------------------------------------------------------------------
       1  |  0:00.00 |    3:18.10   |           0      |      14859
       2  |  3:18.10 |    3:34.10   |       14860      |      30919
       3  |  6:52.20 |    4:36.70   |       30920      |      51689
       4  | 11:29.15 |    3:31.58   |       51690      |      67572
       5  | 15:00.73 |    3:21.02   |       67573      |      82649
       6  | 18:22.00 |    3:59.66   |       82650      |     100640
       7  | 22:21.66 |    3:15.05   |      100641      |     115270
       8  | 25:36.71 |    3:02.17   |      115271      |     128937
       9  | 28:39.13 |    4:00.00   |      128938      |     146937
      10  | 32:39.13 |    3:14.59   |      146938      |     161546
      11  | 35:53.72 |    5:49.74   |      161547      |     187795
      12  | 41:43.71 |    3:30.31   |      187796      |     203576
      13  | 45:14.27 |    3:38.30   |      203577      |     219956
      14  | 48:52.57 |    5:42.01   |      219957      |     245607
      15  | 54:34.58 |    3:45.00   |      245608      |     262482
Трек  1
     Имя файла D:\не удалять!!\Легенды Про... - Две Стороны Одной Медали\Тёмная сторона\01 Оппозиция молчанию.wav
     Длина предзазора  0:00:02.00
     Пиковый уровень 100.0 %
     Скорость извлечения 2.2 X
     Качество трека 100.0 %
     CRC теста 4B5FD220
     CRC копии 4B5FD220
     Трек не обнаружен в базе AccurateRip
     Копирование... OK
Трек  2
     Имя файла D:\не удалять!!\Легенды Про... - Две Стороны Одной Медали\Тёмная сторона\02 Побег.wav
     Длина предзазора  0:00:02.00
     Пиковый уровень 100.0 %
     Скорость извлечения 2.2 X
     Качество трека 99.9 %
     CRC теста 97AED36E
     CRC копии 97AED36E
     Трек не обнаружен в базе AccurateRip
     Копирование... OK
Трек  3
     Имя файла D:\не удалять!!\Легенды Про... - Две Стороны Одной Медали\Тёмная сторона\03 Телек.wav
     Длина предзазора  0:00:02.00
     Пиковый уровень 98.8 %
     Скорость извлечения 2.8 X
     Качество трека 100.0 %
     CRC теста DA8F92CF
     CRC копии DA8F92CF
     Трек не обнаружен в базе AccurateRip
     Копирование... OK
Трек  4
     Имя файла D:\не удалять!!\Легенды Про... - Две Стороны Одной Медали\Тёмная сторона\04 Гарри.wav
     Длина предзазора  0:00:02.00
     Пиковый уровень 100.0 %
     Скорость извлечения 3.0 X
     Качество трека 100.0 %
     CRC теста A6089951
     CRC копии A6089951
     Трек не обнаружен в базе AccurateRip
     Копирование... OK
Трек  5
     Имя файла D:\не удалять!!\Легенды Про... - Две Стороны Одной Медали\Тёмная сторона\05 Go down.wav
     Длина предзазора  0:00:02.00
     Пиковый уровень 100.0 %
     Скорость извлечения 3.1 X
     Качество трека 100.0 %
     CRC теста 2C92B048
     CRC копии 2C92B048
     Трек не обнаружен в базе AccurateRip
     Копирование... OK
Трек  6
     Имя файла D:\не удалять!!\Легенды Про... - Две Стороны Одной Медали\Тёмная сторона\06 Fuck dat.wav
     Длина предзазора  0:00:02.00
     Пиковый уровень 100.0 %
     Скорость извлечения 3.4 X
     Качество трека 100.0 %
     CRC теста 164263B4
     CRC копии 164263B4
     Трек не обнаружен в базе AccurateRip
     Копирование... OK
Трек  7
     Имя файла D:\не удалять!!\Легенды Про... - Две Стороны Одной Медали\Тёмная сторона\07 X.wav
     Длина предзазора  0:00:02.00
     Пиковый уровень 100.0 %
     Скорость извлечения 3.4 X
     Качество трека 100.0 %
     CRC теста 177CC7B8
     CRC копии 177CC7B8
     Трек не обнаружен в базе AccurateRip
     Копирование... OK
Трек  8
     Имя файла D:\не удалять!!\Легенды Про... - Две Стороны Одной Медали\Тёмная сторона\08 Хорошо.wav
     Длина предзазора  0:00:02.00
     Пиковый уровень 100.0 %
     Скорость извлечения 3.1 X
     Качество трека 99.9 %
     CRC теста A2D64420
     CRC копии A2D64420
     Трек не обнаружен в базе AccurateRip
     Копирование... OK
Трек  9
     Имя файла D:\не удалять!!\Легенды Про... - Две Стороны Одной Медали\Тёмная сторона\09 Бесконечная пати.wav
     Длина предзазора  0:00:02.00
     Пиковый уровень 98.8 %
     Скорость извлечения 3.4 X
     Качество трека 99.9 %
     CRC теста DC75F85B
     CRC копии DC75F85B
     Трек не обнаружен в базе AccurateRip
     Копирование... OK
Трек 10
     Имя файла D:\не удалять!!\Легенды Про... - Две Стороны Одной Медали\Тёмная сторона\10 Почему пустеют улицы.wav
     Длина предзазора  0:00:02.00
     Пиковый уровень 100.0 %
     Скорость извлечения 3.8 X
     Качество трека 100.0 %
     CRC теста 3B3581A3
     CRC копии 3B3581A3
     Трек не обнаружен в базе AccurateRip
     Копирование... OK
Трек 11
     Имя файла D:\не удалять!!\Легенды Про... - Две Стороны Одной Медали\Тёмная сторона\11 Дверь.wav
     Длина предзазора  0:00:02.00
     Пиковый уровень 100.0 %
     Скорость извлечения 4.3 X
     Качество трека 100.0 %
     CRC теста AFD63A19
     CRC копии AFD63A19
     Трек не обнаружен в базе AccurateRip
     Копирование... OK
Трек 12
     Имя файла D:\не удалять!!\Легенды Про... - Две Стороны Одной Медали\Тёмная сторона\12 Гиганты слова.wav
     Длина предзазора  0:00:02.00
     Пиковый уровень 100.0 %
     Скорость извлечения 4.2 X
     Качество трека 100.0 %
     CRC теста 7705157D
     CRC копии 7705157D
     Трек не обнаружен в базе AccurateRip
     Копирование... OK
Трек 13
     Имя файла D:\не удалять!!\Легенды Про... - Две Стороны Одной Медали\Тёмная сторона\13 Толпы (feat. Искра).wav
     Длина предзазора  0:00:02.00
     Пиковый уровень 100.0 %
     Скорость извлечения 4.4 X
     Качество трека 100.0 %
     CRC теста C05817AF
     CRC копии C05817AF
     Трек не обнаружен в базе AccurateRip
     Копирование... OK
Трек 14
     Имя файла D:\не удалять!!\Легенды Про... - Две Стороны Одной Медали\Тёмная сторона\14 Одеяло (feat. iZReal).wav
     Длина предзазора  0:00:02.00
     Пиковый уровень 98.8 %
     Скорость извлечения 4.8 X
     Качество трека 100.0 %
     CRC теста 6300F4BA
     CRC копии 6300F4BA
     Трек не обнаружен в базе AccurateRip
     Копирование... OK
Трек 15
     Имя файла D:\не удалять!!\Легенды Про... - Две Стороны Одной Медали\Тёмная сторона\15 Снова.wav
     Длина предзазора  0:00:02.00
     Пиковый уровень 100.0 %
     Скорость извлечения 4.7 X
     Качество трека 100.0 %
     CRC теста A4E3811F
     CRC копии A4E3811F
     Трек не обнаружен в базе AccurateRip
     Копирование... OK
Ни одного трека нет в базе AccurateRip
Ошибок не произошло
Конец отчёта
содержание индексной карты *cue
CD 1
REM GENRE Rap
REM DATE 2013
REM DISCID CA0EAA0F
REM COMMENT "ExactAudioCopy v1.0b3"
PERFORMER "Легенды Про..."
TITLE "Две Стороны Одной Медали"
FILE "01 Мои года.wav" WAVE
  TRACK 01 AUDIO
    TITLE "Мои года"
    PERFORMER "Легенды Про..."
    FLAGS DCP
    INDEX 01 00:00:00
  TRACK 02 AUDIO
    TITLE "Громкие разговоры"
    PERFORMER "Легенды Про..."
    FLAGS DCP
    INDEX 00 04:50:19
FILE "02 Громкие разговоры.wav" WAVE
    INDEX 01 00:00:00
  TRACK 03 AUDIO
    TITLE "Бутерброд"
    PERFORMER "Легенды Про..."
    FLAGS DCP
    INDEX 00 04:03:50
FILE "03 Бутерброд.wav" WAVE
    INDEX 01 00:00:00
  TRACK 04 AUDIO
    TITLE "Рингтон"
    PERFORMER "Легенды Про..."
    FLAGS DCP
    INDEX 00 02:48:24
FILE "04 Рингтон.wav" WAVE
    INDEX 01 00:00:00
  TRACK 05 AUDIO
    TITLE "Повод смириться"
    PERFORMER "Легенды Про..."
    FLAGS DCP
    INDEX 00 03:01:32
FILE "05 Повод смириться.wav" WAVE
    INDEX 01 00:00:00
  TRACK 06 AUDIO
    TITLE "Somebody's love"
    PERFORMER "Легенды Про..."
    FLAGS DCP
    INDEX 00 02:56:27
FILE "06 Somebody's love.wav" WAVE
    INDEX 01 00:00:00
  TRACK 07 AUDIO
    TITLE "Кто знал"
    PERFORMER "Легенды Про..."
    FLAGS DCP
    INDEX 00 04:36:08
FILE "07 Кто знал.wav" WAVE
    INDEX 01 00:00:00
  TRACK 08 AUDIO
    TITLE "Космос"
    PERFORMER "Легенды Про..."
    FLAGS DCP
    INDEX 00 04:21:30
FILE "08 Космос.wav" WAVE
    INDEX 01 00:00:00
  TRACK 09 AUDIO
    TITLE "Лодка"
    PERFORMER "Легенды Про..."
    FLAGS DCP
    INDEX 00 06:05:04
FILE "09 Лодка.wav" WAVE
    INDEX 01 00:00:00
  TRACK 10 AUDIO
    TITLE "Вороны"
    PERFORMER "Легенды Про..."
    FLAGS DCP
    INDEX 00 04:10:06
FILE "10 Вороны.wav" WAVE
    INDEX 01 00:00:00
  TRACK 11 AUDIO
    TITLE "Прости"
    PERFORMER "Легенды Про..."
    FLAGS DCP
    INDEX 00 03:53:63
FILE "11 Прости.wav" WAVE
    INDEX 01 00:00:00
  TRACK 12 AUDIO
    TITLE "Колыбельная района"
    PERFORMER "Легенды Про..."
    FLAGS DCP
    INDEX 00 03:26:31
FILE "12 Колыбельная района.wav" WAVE
    INDEX 01 00:00:00
  TRACK 13 AUDIO
    TITLE "Воздух"
    PERFORMER "Легенды Про..."
    FLAGS DCP
    INDEX 00 04:09:66
FILE "13 Воздух.wav" WAVE
    INDEX 01 00:00:00
  TRACK 14 AUDIO
    TITLE "Виною всему слова"
    PERFORMER "Легенды Про..."
    FLAGS DCP
    INDEX 00 05:21:23
FILE "14 Виною всему слова.wav" WAVE
    INDEX 01 00:00:00
  TRACK 15 AUDIO
    TITLE "Не последний трек"
    PERFORMER "Легенды Про..."
    FLAGS DCP
    INDEX 00 04:07:60
FILE "15 Не последний трек.wav" WAVE
    INDEX 01 00:00:00
CD 2
REM GENRE Rap
REM DATE 2013
REM DISCID B30DAB0F
REM COMMENT "ExactAudioCopy v1.0b3"
PERFORMER "Легенды Про..."
TITLE "Две Стороны Одной Медали"
FILE "01 Оппозиция молчанию.wav" WAVE
  TRACK 01 AUDIO
    TITLE "Оппозиция молчанию"
    PERFORMER "Легенды Про..."
    FLAGS DCP
    INDEX 01 00:00:00
  TRACK 02 AUDIO
    TITLE "Побег"
    PERFORMER "Легенды Про..."
    FLAGS DCP
    INDEX 00 03:16:10
FILE "02 Побег.wav" WAVE
    INDEX 01 00:00:00
  TRACK 03 AUDIO
    TITLE "Телек"
    PERFORMER "Легенды Про..."
    FLAGS DCP
    INDEX 00 03:32:10
FILE "03 Телек.wav" WAVE
    INDEX 01 00:00:00
  TRACK 04 AUDIO
    TITLE "Гарри"
    PERFORMER "Легенды Про..."
    FLAGS DCP
    INDEX 00 04:34:70
FILE "04 Гарри.wav" WAVE
    INDEX 01 00:00:00
  TRACK 05 AUDIO
    TITLE "Go down"
    PERFORMER "Легенды Про..."
    FLAGS DCP
    INDEX 00 03:29:58
FILE "05 Go down.wav" WAVE
    INDEX 01 00:00:00
  TRACK 06 AUDIO
    TITLE "Fuck dat"
    PERFORMER "Легенды Про..."
    FLAGS DCP
    INDEX 00 03:19:02
FILE "06 Fuck dat.wav" WAVE
    INDEX 01 00:00:00
  TRACK 07 AUDIO
    TITLE "X"
    PERFORMER "Легенды Про..."
    FLAGS DCP
    INDEX 00 03:57:66
FILE "07 X.wav" WAVE
    INDEX 01 00:00:00
  TRACK 08 AUDIO
    TITLE "Хорошо"
    PERFORMER "Легенды Про..."
    FLAGS DCP
    INDEX 00 03:13:05
FILE "08 Хорошо.wav" WAVE
    INDEX 01 00:00:00
  TRACK 09 AUDIO
    TITLE "Бесконечная пати"
    PERFORMER "Легенды Про..."
    FLAGS DCP
    INDEX 00 03:00:17
FILE "09 Бесконечная пати.wav" WAVE
    INDEX 01 00:00:00
  TRACK 10 AUDIO
    TITLE "Почему пустеют улицы"
    PERFORMER "Легенды Про..."
    FLAGS DCP
    INDEX 00 03:58:00
FILE "10 Почему пустеют улицы.wav" WAVE
    INDEX 01 00:00:00
  TRACK 11 AUDIO
    TITLE "Дверь"
    PERFORMER "Легенды Про..."
    FLAGS DCP
    INDEX 00 03:12:59
FILE "11 Дверь.wav" WAVE
    INDEX 01 00:00:00
  TRACK 12 AUDIO
    TITLE "Гиганты слова"
    PERFORMER "Легенды Про..."
    FLAGS DCP
    INDEX 00 05:47:74
FILE "12 Гиганты слова.wav" WAVE
    INDEX 01 00:00:00
  TRACK 13 AUDIO
    TITLE "Толпы (feat. Искра)"
    PERFORMER "Легенды Про..."
    FLAGS DCP
    INDEX 00 03:28:31
FILE "13 Толпы (feat. Искра).wav" WAVE
    INDEX 01 00:00:00
  TRACK 14 AUDIO
    TITLE "Одеяло (feat. iZReal)"
    PERFORMER "Легенды Про..."
    FLAGS DCP
    INDEX 00 03:36:30
FILE "14 Одеяло (feat. iZReal).wav" WAVE
    INDEX 01 00:00:00
  TRACK 15 AUDIO
    TITLE "Снова"
    PERFORMER "Легенды Про..."
    FLAGS DCP
    INDEX 00 05:40:01
FILE "15 Снова.wav" WAVE
    INDEX 01 00:00:00
--
Загрузка...
[Профиль] [ЛС]
Показать сообщения:    
Ответить на тему

Текущее время: 13-Ноя 22:19

Часовой пояс: UTC + 4



Вы не можете начинать темы
Вы не можете отвечать на сообщения
Вы не можете редактировать свои сообщения
Вы не можете удалять свои сообщения
Вы не можете голосовать в опросах
Вы не можете прикреплять файлы к сообщениям
Вы не можете скачивать файлы