Iron Maiden - Rainmaker [2011 г., Heavy Metal, BDRip]

Ответить на тему
 
Автор Сообщение

audi80m ®

Стаж: 6 лет 9 месяцев

Сообщений: 92

Откуда: Украина

Создавать темы 06-Июн-2013 20:53

[Цитировать]


Iron Maiden - Rainmaker
Год выпуска: 2011
Жанр: Heavy Metal
Продолжительность: 00:03:51
Описание: Клип по фильму Призрачный гонщик / Ghost Rider
Качество: BDRip
Формат: MKV
Видео кодек: H.264
Аудио кодек: MP3
Видео: 1920x800, 23.976 fps, MPEG 4, 7663 kbps, 0.208 bit/pixel
Аудио: 44.100 kHz, МР3, 2 ch, 192.00 kbps avg
Скриншоты
MI
General
Unique ID : 193744618201037855597114672783932842827 (0x91C1DB2E5512F7D8B706FCE2E94CE34B)
Complete name : D:\Ghost Rider.mkv
Format : Matroska
Format version : Version 2
File size : 211 MiB
Duration : 3mn 51s
Overall bit rate mode : Variable
Overall bit rate : 7 675 Kbps
Encoded date : UTC 2011-01-18 07:39:16
Writing application : mkvmerge v4.3.0 ('Escape from the Island') сборка от Sep 28 2010 23:42:10
Writing library : libebml v1.0.0 + libmatroska v1.0.0
Video
ID : 2
Format : AVC
Format/Info : Advanced Video Codec
Format profile : High@L4.0
Format settings, CABAC : Yes
Format settings, ReFrames : 4 frames
Muxing mode : Header stripping
Codec ID : V_MPEG4/ISO/AVC
Duration : 3mn 51s
Bit rate : 7 663 Kbps
Width : 1 920 pixels
Height : 800 pixels
Display aspect ratio : 2.40:1
Frame rate mode : Constant
Frame rate : 23.976 fps
Color space : YUV
Chroma subsampling : 4:2:0
Bit depth : 8 bits
Scan type : Progressive
Bits/(Pixel*Frame) : 0.208
Stream size : 202 MiB (96%)
Writing library : x264 core 92 r1510 33d382a
Encoding settings : cabac=1 / ref=3 / deblock=1:0:0 / analyse=0x3:0 / me=dia / subme=1 / psy=1 / psy_rd=0.00:0.00 / mixed_ref=0 / me_range=16 / chroma_me=1 / trellis=1 / 8x8dct=1 / cqm=0 / deadzone=21,11 / fast_pskip=1 / chroma_qp_offset=0 / threads=3 / sliced_threads=0 / nr=0 / decimate=1 / interlaced=0 / constrained_intra=0 / bframes=3 / b_pyramid=2 / b_adapt=1 / b_bias=0 / direct=3 / wpredb=1 / wpredp=2 / keyint=250 / keyint_min=25 / scenecut=40 / intra_refresh=0 / rc_lookahead=40 / rc=2pass / mbtree=1 / bitrate=7663 / ratetol=1.0 / qcomp=0.60 / qpmin=10 / qpmax=51 / qpstep=4 / cplxblur=20.0 / qblur=0.5 / ip_ratio=1.40 / aq=1:1.00
Default : Yes
Forced : No
Audio
ID : 1
Format : MPEG Audio
Format version : Version 1
Format profile : Layer 3
Mode : Joint stereo
Mode extension : MS Stereo
Muxing mode : Header stripping
Codec ID : A_MPEG/L3
Codec ID/Hint : MP3
Duration : 3mn 43s
Bit rate mode : Variable
Bit rate : 192 Kbps
Channel(s) : 2 channels
Sampling rate : 44.1 KHz
Compression mode : Lossy
Stream size : 5.11 MiB (2%)
Writing library : LAME3.92
Encoding settings : -m j -V 0 -q 5 -lowpass 19.3 --abr 192
Default : Yes
Forced : No

[Профиль] [ЛС]

Механик

Стаж: 6 лет 10 месяцев

Сообщений: 22

Создавать темы 09-Июн-2013 19:07 (спустя 2 дня 22 часа)

[Цитировать]

большое спасибо
[Профиль] [ЛС]

audi80m ®

Стаж: 6 лет 9 месяцев

Сообщений: 92

Откуда: Украина

Создавать темы 09-Июн-2013 19:32 (спустя 24 минуты)

[Цитировать]

Механик, обращайся если что... bs
[Профиль] [ЛС]

Djozef 75

Стаж: 6 лет 1 месяц

Сообщений: 2

Создавать темы 14-Авг-2013 17:05 (спустя 2 месяца 4 дня)

[Цитировать]

Раздачи нету! Плохо! bc
[Профиль] [ЛС]
Показать сообщения:    
Ответить на тему

Текущее время: 20-Сен 22:19

Часовой пояс: UTC + 4



Вы не можете начинать темы
Вы не можете отвечать на сообщения
Вы не можете редактировать свои сообщения
Вы не можете удалять свои сообщения
Вы не можете голосовать в опросах
Вы не можете прикреплять файлы к сообщениям
Вы не можете скачивать файлы