Тайные связи (Семён Винокур) [2009, документально-познавательный,WEB-DL Rip 720p]

Ответить на тему
 
Автор Сообщение

krasyarBB ®

Стаж: 7 лет 2 месяца

Сообщений: 34

Создавать темы 09-Май-2013 15:58

[Цитировать]

Тайные связи -Год выпуска: 2009
Страна: Россия, Израиль
Производство: Ari Films
Жанр: документально-познавательный
Продолжительность: 00:22:15
Перевод: оригинал (русский язык)
Субтитры: нет-В ролях: Михаэль Лайтман, Михаил Хазин, Михаил Санилевич, Евгений Литварь, Юлия Рутберг, Александр Никонов
Режиссёр: Семён Винокур-Описание: По всем прогнозам: экономическим, климатическим, политическим и социальным человечество прошло некий рубеж, за которым нет возврата.. Перед нами общая катастрофа, нынешний экономический кризис – ее первая ласточка. Затем – голод, эпидемии, и, разумеется, войны, ядерные. Экономисты, ученые, журналисты, люди искусства спрашивают, что можно сделать? Чем завтра накормить 6,5 млрд. человек? Как удержать отчаявшиеся массы от насилия, анархии, фашизма? Можно ли вообще спрыгнуть с этого поезда, несущегося в пропасть? Острые вопросы, претензии, сомнения, крик души – на все дает ответ, объяснение, доказательства и надежду каббалист, профессор Михаэль Лайтман в фильме "Тайные связи".-Качество: WEB-DL Rip 720p
Формат: MP4
Видео кодек: MPEG-4 AVC (H.264)
Аудио кодек: AAC
Видео: 1280 x 720, 25,000 fps, 1625 Kbps, 0.071 bit/pixel
Аудио: 44,1 kHz, 2 (L,R) ch, 128 kb/s

СЭМПЛ
Скриншоты
Расскадровка
MediaInfo
Общее
Полное имя : Тajnye_svjazi.mp4
Формат : MPEG-4
Профиль формата : Base Media / Version 2
Идентификатор кодека : mp42
Размер файла : 280 Мбайт
Продолжительность : 22 м.
Режим общего битрейта : Переменный
Общий поток : 1757 Кбит/сек
Дата кодирования : UTC 2011-02-09 13:11:03
Дата пометки : UTC 2011-02-09 13:11:03
gsst : 0
gstd : 1335680
gssd : B4A7DD8E4MH1335674641843314
gshh : o-o.preferred.bru02t11.v4.cache8.c.youtube.com
Видео
Идентификатор : 1
Формат : AVC
Формат/Информация : Advanced Video Codec
Профиль формата : High@L3.1
Параметр CABAC формата : Да
Параметр ReFrames формата : 1 кадр
Идентификатор кодека : avc1
Идентификатор кодека/Информация : Advanced Video Coding
Продолжительность : 22 м.
Битрейт : 1625 Кбит/сек
Максимальный битрейт : 7717 Кбит/сек
Ширина : 1280 пикселей
Высота : 720 пикселей
Соотношение сторон : 16:9
Режим частоты кадров : Постоянный
Частота кадров : 25,000 кадров/сек
Цветовое пространство : YUV
Субдискретизация насыщенности : 4:2:0
Битовая глубина : 8 бит
Тип развёртки : Прогрессивная
Бит/(Пиксели*Кадры) : 0.071
Размер потока : 259 Мбайт (92%)
Дата пометки : UTC 2011-02-09 13:11:09
Аудио
Идентификатор : 2
Формат : AAC
Формат/Информация : Advanced Audio Codec
Профиль формата : LC
Идентификатор кодека : 40
Продолжительность : 22 м.
Вид битрейта : Переменный
Битрейт : 128 Кбит/сек
Максимальный битрейт : 179 Кбит/сек
Каналы : 2 канала
Расположение каналов : Front: L R
Частота : 44,1 КГц
Метод сжатия : С потерями
Размер потока : 20,4 Мбайт (7%)
Заголовок : (C) 2007 Google Inc. v08.13.2007.
Дата кодирования : UTC 2011-02-09 13:11:06
Дата пометки : UTC 2011-02-09 13:11:09
[Профиль] [ЛС]

Создавать темы 09-Май-2013 17:52 (спустя 1 час 54 минуты)

Топик был перенесен из форума Наше кино(DVD, HD Video) в форум Документальные фильмы (DVD & HD & HQ Video)

Диман
 
Показать сообщения:    
Ответить на тему

Текущее время: 10-Июл 00:46

Часовой пояс: UTC + 4



Вы не можете начинать темы
Вы не можете отвечать на сообщения
Вы не можете редактировать свои сообщения
Вы не можете удалять свои сообщения
Вы не можете голосовать в опросах
Вы не можете прикреплять файлы к сообщениям
Вы не можете скачивать файлы