Хоббит: Нежданное путешествие / The Hobbit: An Unexpected Journey (Питер Джексон / Peter Jackson) [2012, США, Новая Зеландия, 3Foot7, Metro-Goldwyn-Mayer (MGM), New Line Cinema, WingNut Films, Фэнтези, приключения, DVDScreener] Dub

Ответить на тему
 
Автор Сообщение

Koralina ®

Стаж: 8 лет 1 месяц

Сообщений: 2785

Создавать темы 21-Янв-2013 13:06

[Цитировать]

Хоббит: Нежданное путешествие / The Hobbit: An Unexpected Journey
Страна: США, Новая Зеландия, 3Foot7, Metro-Goldwyn-Mayer (MGM), New Line Cinema, WingNut Films
Жанр: Фэнтези, приключения
Год выпуска: 2012
Продолжительность: 02:49:32
Перевод: Профессиональный (дублированный)
Cубтитры: нет
Оригинальная аудиодорожка: нет
Режиссер: Питер Джексон / Peter Jackson
В ролях: Мартин Фриман, Йен МакКеллен, Ричард Армитидж, Джеймс Несбитт, Кен Стотт, Кейт Бланшетт, Элайджа Вуд, Хьюго Уивинг, Кристофер Ли, Энди Серкис
Описание: Фильм повествует о путешествии Бильбо Бэггинса, который пускается в грандиозный поход, целью которого является отвоевание утраченного королевства гномов Эребор у зловещего дракона Смога...
Доп. информация:
IMDb 8.3
Кинопоиск 8.6
Семпл:http://multi-up.com/819815
Качество видео: DVDScreener
Формат видео: AVI
Видео: XviD, 1269 Кбит/с, 720x304, 29,534 fps
Аудио: MP3, 2 ch, 128 Кбит/с, 48,0 КГц
MediaInfo
Общее
Полное имя : C:\Users\User\Desktop\Документы\Торенты\Hobbit 2012\Hobbit 2012.avi
Формат : AVI
Формат/Информация : Audio Video Interleave
Размер файла : 1,67 Гбайт
Продолжительность : 2 ч. 49 м.
Общий поток : 1408 Кбит/сек
Программа кодирования : VirtualDubModRus 1.5.10.2 (build 2542/release)
Библиотека кодирования : VirtualDubMod build 2542/release
Видео
Идентификатор : 0
Формат : MPEG-4 Visual
Профиль формата : Advanced Simple@L5
Параметр BVOP формата : 2
Параметр QPel формата : Нет
Параметр GMC формата : Без точки перехода
Параметр матрицы формата : Default (H.263)
Режим смешивания : Сжатый битовый поток
Идентификатор кодека : XVID
Идентификатор кодека/Подсказка : XviD
Продолжительность : 2 ч. 49 м.
Продолжительность оригинала : 2 ч. 12 м.
Битрейт : 1293 Кбит/сек
Ширина : 720 пикселей
Высота : 304 пикселя
Соотношение сторон : 2,35:1
Частота кадров : 29,534 кадров/сек
Частота кадров в оригинале : 29,547 кадров/сек
Цветовое пространство : YUV
Субдискретизация насыщенности : 4:2:0
Битовая глубина : 8 бит
Тип развёртки : Прогрессивная
Метод сжатия : С потерями
Бит/(Пиксели*Кадры) : 0.200
Размер потока : 1,20 Гбайт (72%)
Библиотека кодирования : XviD 64
Аудио
Идентификатор : 1
Формат : MPEG Audio
Версия формата : Version 1
Профиль формата : Layer 3
Режим : Joint stereo
Расширение режима : MS Stereo
Идентификатор кодека : 55
Идентификатор кодека/Подсказка : MP3
Продолжительность : 2 ч. 49 м.
Продолжительность оригинала : 2 ч. 12 м.
Вид битрейта : Постоянный
Битрейт : 128 Кбит/сек
Каналы : 2 канала
Частота : 48,0 КГц
Метод сжатия : С потерями
Размер потока : 121 Мбайт (7%)
Выравнивание : Соединение по промежуткам
Продолжительность промежутка : 34 мс. (1,00 видеокадр)
Время предзагрузки промежутка : 504 мс.
Скриншот c названием фильма
Скриншоты
[Профиль] [ЛС]

Создавать темы 05-Апр-2020 10:37 (спустя 7 лет 2 месяца)

Топик был перенесен из форума Зарубежные (•CAMRip ­ •TeleSynch ­ •DVDScr ­ •Трейлеры) в форум Архив
nickson-82
 
Показать сообщения:    
Ответить на тему

Текущее время: 10-Июл 00:45

Часовой пояс: UTC + 4



Вы не можете начинать темы
Вы не можете отвечать на сообщения
Вы не можете редактировать свои сообщения
Вы не можете удалять свои сообщения
Вы не можете голосовать в опросах
Вы не можете прикреплять файлы к сообщениям
Вы не можете скачивать файлы