Большая ржака! (Виталий Москаленко) [2012 г., комедия, DVD5 сжатый] [лицензия]

Ответить на тему
 
Автор Сообщение

MIO2008 ®

Стаж: 7 лет 5 месяцев

Сообщений: 2224

Откуда: СССР

Создавать темы 28-Авг-2012 13:26

[Цитировать]


Название: Большая ржака!
Год выпуска: 2012
Страна: Россия
Слоган: «Это больше чем комедия! Это - «Большая Ржака»!»
Жанр: комедия
Продолжительность: 01:20:10
Перевод: Не требуется-Режиссер: Виталий Москаленко
Сценарий: Дмитрий Лемешев, Виталий Малый, Николай Ковбас, Алексей Нужный
Продюсер: Виталий Малый, Роман Арзуманов
Оператор: Дмитрий Мальцев
Композитор: Markscheider Kunst-В ролях:
Сергей Писаренко, Евгений Никишин, Ирина Медведева, Сергей Дорогов, Александр Семчев, Александр Робак, Александра Флоринская, Анна Семенович, Михаил Владимиров, Виктор Добронравов, Владимир Зайцев, Алёна Яковлева-Описание:
В провинциальном городке на местном ТВ прозябают два друга - Ширяев и Молоток, и их коллега - красавица Надя. Все трое мечтают разбогатеть и стать столичными звездами. Неожиданно им в голову приходит идея: устроить реалити-шоу, участники которого должны отыскать золото Колчака. Одержимые жадностью герои шоу пускаются в гонку за кладом на самолетах, поездах и автомобилях. В пути их ждут сумасшедшие приключения, и все они еще не знают главного секрета...- -Релиз: -Качество: DVD5 (сжатый)
Формат: DVD Video
Видео: MPEG2; PAL 16:9 (720x576)
Аудио: Dolby AC3, 6 ch, 384 Kbps Russian
Субтитры: нет-Дополнительная информация :
Исходник : DVD9 (6.38 Гб) [лицензия, PAL 16:9]
Убрано : допы, реклама, заставки, предупреждения, Russian (Dolby AC3, 2 ch)
Сжатие фильма : 16.6 % сжатия (без учета ручного перераспределения битрейта, за счет большего сжатия конечных титров)-
использовались программы
DVDRemakePro
Photoshop
MuxMan
Rebuilder и CCE (Cinema Craft Encoder), 5 проходов
Работоспособность проверена на софтовом плеере Windows Media и бытовом LG
DVDInfo
Title: Bolshaya.rzhaka_2012_DVD5.[R.G.Daredevil]
Size: 4.36 Gb ( 4 567 358,00 KBytes ) - DVD-5
Enabled regions: 1, 2, 3, 4, 5, 6, 7, 8
VTS_01 :
Play Length: 00:00:01+01:20:10+00:00:01
Video: PAL 16:9 (720x576) VBR, Auto Letterboxed
Audio:
Russian (Dolby AC3, 6 ch)
Russian (Dolby AC3, 2 ch)
VTS_02 :
Play Length: 00:00:00+00:00:00+00:00:00
Video: PAL 16:9 (720x576) VBR, Auto Letterboxed
Audio:
Russian (Dolby AC3, 2 ch)
VTS_03 :
Play Length: 00:00:00+00:00:00+00:00:00
Video: PAL 16:9 (720x576) VBR, Auto Letterboxed
Audio:
Russian (Dolby AC3, 2 ch)
VTS_04 :
Play Length: 00:00:00+00:00:05+00:00:00
Video: PAL 16:9 (720x576) VBR, Auto Letterboxed
Audio:
Russian (Dolby AC3, 2 ch)
mediainfo
Формат : MPEG-PS
Размер файла : 1024 Мбайт
Продолжительность : 18 м.
Режим общего битрейта : Переменный
Общий поток : 7836 Кбит/сек
Видео
Идентификатор : 224 (0xE0)
Формат : MPEG Video
Версия формата : Version 2
Профиль формата : Main@Main
Параметр BVOP формата : Да
Параметр матрицы формата : Выборочная
Продолжительность : 18 м.
Вид битрейта : Переменный
Битрейт : 7296 Кбит/сек
Максимальный битрейт : 6000 Кбит/сек
Ширина : 720 пикселей
Высота : 576 пикселей
Соотношение сторон : 16:9
Частота кадров : 25,000 кадров/сек
Стандарт вещания : PAL
Цветовое пространство : YUV
Субдискретизация насыщенности : 4:2:0
Битовая глубина : 8 бит
Тип развёртки : Чересстрочная
Порядок развёртки : Нижнее поле первое
Метод сжатия : С потерями
Бит/(Пиксели*Кадры) : 0.704
Размер потока : 953 Мбайт (93%)
Аудио
Идентификатор : 189 (0xBD)-128 (0x80)
Формат : AC-3
Формат/Информация : Audio Coding 3
Расширение режима : CM (complete main)
Режим смешивания : DVD-Video
Продолжительность : 18 м.
Вид битрейта : Постоянный
Битрейт : 384 Кбит/сек
Каналы : 6 каналов
Расположение каналов : Front: L C R, Side: L R, LFE
Частота : 48,0 КГц
Битовая глубина : 16 бит
Метод сжатия : С потерями
Размер потока : 50,2 Мбайт (5%)
Меню
Скриншоты меню
Скриншоты фильма
[Профиль] [ЛС]
Показать сообщения:    
Ответить на тему

Текущее время: 06-Дек 00:05

Часовой пояс: UTC + 4



Вы не можете начинать темы
Вы не можете отвечать на сообщения
Вы не можете редактировать свои сообщения
Вы не можете удалять свои сообщения
Вы не можете голосовать в опросах
Вы не можете прикреплять файлы к сообщениям
Вы не можете скачивать файлы