(Pop) Маленький Принц - Мы Встретимся Снова - 1994, APE (image + .cue), lossless

Ответить на тему
 
Автор Сообщение

sergej644 ®

Стаж: 7 лет 4 месяца

Сообщений: 982

Создавать темы 08-Авг-2012 20:31

[Цитировать]

-Маленький Принц - Мы Встретимся Снова- -Страна: Россия | Жанр: Pop | Год выпуска: 1994 | Формат: APE (image + .cue) | Битрейт аудио: lossless |
Продолжительность: 00:35:42
- -01. Я не знаю, зачем мне ты [05:22]
02. Голос в ночи [04:06]
03. Прощай [05:22]
04. Не знаю я тебя [04:53]
05. Снежный человек [03:31]
06. Ты или нет [04:28]
07. Мы встретимся снова [04:27]
08. Голос в ночи (инструментал) [03:29]
- -
Лог создания рипа
Exact Audio Copy V0.99 prebeta 5 from 4. May 2009
Отчёт EAC об извлечении, выполненном 7. сентября 2010, 21:07
Маленький принц / Мы встретимся снова
Дисковод: HL-DT-STDVD-RAM GH22NS30 Adapter: 3 ID: 0
Режим чтения : Достоверность
Использование точного потока : Да
Отключение кэша аудио : Да
Использование указателей C2 : Нет
Коррекция смещения при чтении : 102
Способность читать области Lead-in и Lead-out : Нет
Заполнение пропущенных сэмплов тишиной : Да
Удаление блоков с тишиной в начале и конце : Нет
При вычислениях CRC использовались нулевые сэмплы : Да
Интерфейс : Встроенный Win32-интерфейс для Win NT/2000
Выходной формат : Внутренние WAV-операции
Формат сэмплов : 44.100 Гц; 16 бит; стерео
TOC извлечённого CD
Трек | Старт | Длительность | Начальный сектор | Конечный сектор
---------------------------------------------------------------------
1 | 0:00.25 | 5:22.00 | 25 | 24174
2 | 5:22.25 | 4:06.37 | 24175 | 42661
3 | 9:28.62 | 5:22.60 | 42662 | 66871
4 | 14:51.47 | 4:53.28 | 66872 | 88874
5 | 19:45.00 | 3:31.47 | 88875 | 104746
6 | 23:16.47 | 4:28.50 | 104747 | 124896
7 | 27:45.22 | 4:27.30 | 124897 | 144951
8 | 32:12.52 | 3:29.65 | 144952 | 160691
Характеристики диапазона извлечения и сообщения об ошибках
Выбранный диапазон
Имя файла C:\Users\EDDYSS@N\Desktop\Маленький принц (1994) - Мы встретимся снова[lossless]\Маленький принц - Мы встретимся снова.wav
Пиковый уровень 90.4 %
Качество диапазона 100.0 %
CRC теста 6425B959
CRC копии 6425B959
Копирование... OK
Ошибок не произошло
AccurateRip: сводка
Трек 1 точное извлечение (доверие 1) [32B3B135]
Трек 2 точное извлечение (доверие 1) [2CA993C2]
Трек 3 точное извлечение (доверие 1) [4C47B5AA]
Трек 4 точное извлечение (доверие 1) [D7065B2E]
Трек 5 точное извлечение (доверие 1) [7AC0FA22]
Трек 6 точное извлечение (доверие 1) [2BC69FE8]
Трек 7 точное извлечение (доверие 1) [4082170F]
Трек 8 точное извлечение (доверие 1) [B573CC39]
Все треки извлечены точно
Конец отчёта
Содержание индексной карты (.CUE)
REM GENRE Pop
REM DATE 1994
REM DISCID 76085E08
REM COMMENT "ExactAudioCopy v0.99pb5"
PERFORMER "Маленький принц"
TITLE "Мы встретимся снова"
FILE "Маленький принц - Мы встретимся снова.wav" WAVE
TRACK 01 AUDIO
TITLE "Я не знаю, зачем мне ты"
PERFORMER "Маленький принц"
INDEX 00 00:00:00
INDEX 01 00:00:25
TRACK 02 AUDIO
TITLE "Голос в ночи"
PERFORMER "Маленький принц"
INDEX 00 05:20:10
INDEX 01 05:22:25
TRACK 03 AUDIO
TITLE "Прощай"
PERFORMER "Маленький принц"
INDEX 00 09:26:52
INDEX 01 09:28:62
TRACK 04 AUDIO
TITLE "Не знаю я тебя"
PERFORMER "Маленький принц"
INDEX 00 14:49:37
INDEX 01 14:51:47
TRACK 05 AUDIO
TITLE "Снежный человек"
PERFORMER "Маленький принц"
INDEX 00 19:42:50
INDEX 01 19:45:00
TRACK 06 AUDIO
TITLE "Ты или нет"
PERFORMER "Маленький принц"
INDEX 00 23:14:35
INDEX 01 23:16:47
TRACK 07 AUDIO
TITLE "Мы встретимся снова"
PERFORMER "Маленький принц"
INDEX 00 27:43:07
INDEX 01 27:45:22
TRACK 08 AUDIO
TITLE "Голос в ночи (инструментал)"
PERFORMER "Маленький принц"
INDEX 00 32:10:35
INDEX 01 32:12:52
-- --
[Профиль] [ЛС]
Показать сообщения:    
Ответить на тему

Текущее время: 08-Дек 13:17

Часовой пояс: UTC + 4



Вы не можете начинать темы
Вы не можете отвечать на сообщения
Вы не можете редактировать свои сообщения
Вы не можете удалять свои сообщения
Вы не можете голосовать в опросах
Вы не можете прикреплять файлы к сообщениям
Вы не можете скачивать файлы