(PoP) Вячеслав Быков - Для неё весь мир - 2003, FLAC (image+.cue), lossless

Ответить на тему
 
Автор Сообщение

2v2w ®

Стаж: 7 лет 2 месяца

Сообщений: 1913

Создавать темы 19-Сен-2013 21:01

[Цитировать]

--Вячеслав Быков - Для неё весь мир-- Жанр: PoP
Страна-производитель диска: Украина
Год издания: 2003
Издатель (лейбл): JRC
Номер по каталогу: SP 302 CD
Аудиокодек: FLAC (*.flac)
Тип рипа: image+.cue
Битрейт аудио: lossless
Продолжительность: 00:41:55
Наличие сканов в содержимом раздачи: да
Треклист:

01. Для неё весь мир [03:34]
02. Моя звезда [03:24]
03. Лаура [03:48]
04. Где я, где ты [03:56]
05. Осень [03:59]
06. 15 маршрут [04:31]
07. Мой друг ушел за солнцем [04:42]
08. Такси [03:56]
09. Дождь [03:23]
10. Над деревнею гроза [03:07]
11. Для нее весь мир (караоке) [03:32]
Отчёт EAC
Exact Audio Copy V1.0 beta 1 from 15. November 2010
Отчёт EAC об извлечении, выполненном 19. сентября 2013, 18:32
Вячеслав Быков / Для нее весь мир
Дисковод: ASUS DRW-24B3ST Adapter: 0 ID: 1
Режим чтения : Достоверность
Использование точного потока : Да
Отключение кэша аудио : Да
Использование указателей C2 : Нет
Коррекция смещения при чтении : 6
Способность читать области Lead-in и Lead-out : Нет
Заполнение пропущенных сэмплов тишиной : Да
Удаление блоков с тишиной в начале и конце : Нет
При вычислениях CRC использовались нулевые сэмплы : Да
Интерфейс : Встроенный Win32-интерфейс для Win NT/2000
Выходной формат : Пользовательский кодировщик
Выбранный битрейт : 896 kBit/s
Качество : Высокий
Добавление ID3-тэга : Нет
Утилита сжатия : C:\Program Files\FLAC\flac.exe
Дополнительные параметры : -T "DATE=%y" -T "GENRE=%m" -8 -V %s
TOC извлечённого CD
Трек | Старт | Длительность | Начальный сектор | Конечный сектор
---------------------------------------------------------------------
1 | 0:00.00 | 3:34.09 | 0 | 16058
2 | 3:34.09 | 3:24.30 | 16059 | 31388
3 | 6:58.39 | 3:48.04 | 31389 | 48492
4 | 10:46.43 | 3:56.13 | 48493 | 66205
5 | 14:42.56 | 3:59.02 | 66206 | 84132
6 | 18:41.58 | 4:31.43 | 84133 | 104500
7 | 23:13.26 | 4:42.04 | 104501 | 125654
8 | 27:55.30 | 3:56.00 | 125655 | 143354
9 | 31:51.30 | 3:23.68 | 143355 | 158647
10 | 35:15.23 | 3:07.67 | 158648 | 172739
11 | 38:23.15 | 3:32.18 | 172740 | 188657
Характеристики диапазона извлечения и сообщения об ошибках
Выбранный диапазон
Имя файла D:\Вячеслав Быков - Для нее весь мир.wav
Пиковый уровень 100.0 %
0.6 X
Качество диапазона 100.0 %
CRC теста 7C2D84E5
CRC копии 7C2D84E5
Копирование... OK
Ошибок не произошло
AccurateRip: сводка
Трек 1 нет в базе данных
Трек 2 нет в базе данных
Трек 3 нет в базе данных
Трек 4 нет в базе данных
Трек 5 нет в базе данных
Трек 6 нет в базе данных
Трек 7 нет в базе данных
Трек 8 нет в базе данных
Трек 9 нет в базе данных
Трек 10 нет в базе данных
Трек 11 нет в базе данных
Ни одного трека нет в базе AccurateRip
Конец отчёта
==== E3CE926D5CDB77C3F5CBAF90DDF2F07DC6C034F4AECA2CC0A5F3A163A7754585 ====
[Профиль] [ЛС]
Показать сообщения:    
Ответить на тему

Текущее время: 06-Дек 00:54

Часовой пояс: UTC + 4



Вы не можете начинать темы
Вы не можете отвечать на сообщения
Вы не можете редактировать свои сообщения
Вы не можете удалять свои сообщения
Вы не можете голосовать в опросах
Вы не можете прикреплять файлы к сообщениям
Вы не можете скачивать файлы