Чемпионат мира '12, Все матчи сборной России [05.05.2012 - 20.05.2012, хоккей, HDRip/720p/50fps/Спорт 1]

Ответить на тему
 
Автор Сообщение

2v2w ®

Стаж: 6 лет 10 месяцев

Сообщений: 1911

Создавать темы 15-Май-2013 11:46

[Цитировать]

Чемпионат мира 2012-Все матчи сборной России -Вид спорта: Хоккей
Дата: 05.05.2012 - 20.05.2012
Комментарий: Профессиональный
Язык комментариев: Русский (Сергей Гимаев, Роман Скворцов)
Source:
Автор рипа/записи: собственный рип на материалы от holopow и makar75
-
Качество: HDRip
Формат: mkv
Видео кодек: h264 AVC High@L4.0
Аудио кодек: MPEG Audio
Видео: 4000 kbps || 50.000 fps || 1280x720 || 1.78:1
Аудио: 192 Kbps || 48 KHz || 2 channels
-Сэмпл для оценки качества - [50 сек]-Как скачать отдельный файл из раздачи? / Как докачать пропущенные файлы торрента?-Торрент обновлен. [07.06.2012]
Заменены матчи с Латвией и Швецией. В них устранен рассинхрон.
MediaInfo
Расположение: D:\IceHockey\2012_WC\WC.2012.Russia.All.Games.720p.50fps\WC.2012.05.11.RUS.vs.SWE.720p.50fps.mkv
Имя файла: WC.2012.05.11.RUS.vs.SWE.720p.50fps.mkv
Формат файла: .mkv (Matroska)
Размер файла: 3.70 GB
Длительность: 2h 8mn
Навигация по главам: Нет
Bitrate (все потоки): 4 136 Kbps
Файл создан...: UTC 2012-05-12 16:17:55
...при помощи: mkvmerge v5.5.0 ('Healer') built on Apr  6 2012 21:43:24
...с использованием: libebml v1.2.3 + libmatroska v1.3.0
Название: WC.2012.05.11.RUS.vs.SWE.720p.50fps
Тип потока: Видео
Длительность: 02:08:07
Кодек: AVC
Кодек/Профиль: High@L4.0
Кодек/ID: V_MPEG4/ISO/AVC
Размеры изображения: 1280 x 720 (16:9)
Частота кадров: 50.000 fps
Размер потока: 3.51 GiB (95%)
Битрейт: 4 000 Kbps
Библиотека кодирования: x264 core 120 r2164 da19765
Настройки кодирования: cabac=1 / ref=3 / deblock=1:-1:-1 / analyse=0x3:0x133 / me=hex / subme=11 / psy=1 / psy_rd=1.00:0.00 / mixed_ref=1 / me_range=16 / chroma_me=1 / trellis=2 / 8x8dct=1 / cqm=0 / deadzone=21,11 / fast_pskip=1 / chroma_qp_offset=-2 / threads=6 / sliced_threads=0 / nr=0 / decimate=1 / interlaced=0 / bluray_compat=0 / constrained_intra=0 / bframes=3 / b_pyramid=2 / b_adapt=2 / b_bias=0 / direct=1 / weightb=1 / open_gop=0 / weightp=2 / keyint=500 / keyint_min=50 / scenecut=40 / intra_refresh=0 / rc_lookahead=50 / rc=abr / mbtree=1 / bitrate=4000 / ratetol=1.0 / qcomp=0.60 / qpmin=0 / qpmax=69 / qpstep=4 / ip_ratio=1.40 / aq=1:1.00
Тип потока: Звук #1
Длительность: 02:08:07.400
Кодек: MPEG Audio
Кодек/ID: A_MPEG/L2
Частота дискретизации: 48.0 KHz
Каналов: 2 channels
Битрейт: 128 Kbps
Размер потока: 117 MiB (3%)
2012.05.05. группа S: Латвия - Россия
Продолжительность
01:53:00
Результат и Статистика
Скриншоты
2012.05.06. группа S: Россия - Норвегия
Продолжительность
01:48:41
Результат и Статистика
4 - 2
Скриншоты
2012.05.08. группа S: Россия - Германия
Продолжительность
01:42:57
Результат и Статистика
2 - 0
Скриншоты
2012.05.10. группа S: Дания - Россия
Продолжительность
01:47:24
Результат и Статистика
1 - 3
Скриншоты
2012.05.11. группа S: Россия - Швеция
Продолжительность
02:08:08
Результат и Статистика
7 - 3
Скриншоты
2012.05.13. группа S: Чехия - Россия. Отсутствует из-за не показа данного матча в HD
2012.05.14. группа S: Италия - Россия
Продолжительность
01:43:43
Результат и Статистика
0 - 4
Скриншоты
2012.05.17. 1/4: Россия - Норвегия
Продолжительность
01:47:05
Результат и Статистика
5 - 2
Скриншоты
2012.05.19. 1/2: Россия - Финляндия
Продолжительность
01:50:12
Результат и Статистика
6 - 2
Скриншоты
2012.05.20. Финал: Россия - Словакия + Церемония награждения
Продолжительность
02:02:07
Результат и Статистика
6 - 2
Скриншоты
[Профиль] [ЛС]
Показать сообщения:    
Ответить на тему

Текущее время: 23-Авг 04:35

Часовой пояс: UTC + 4



Вы не можете начинать темы
Вы не можете отвечать на сообщения
Вы не можете редактировать свои сообщения
Вы не можете удалять свои сообщения
Вы не можете голосовать в опросах
Вы не можете прикреплять файлы к сообщениям
Вы не можете скачивать файлы