(Hardcore, Gabber) VA - Thunderdome V - The Fifth Nightmare! - 1995, [2xCD], (Arcade - [9902196]), FLAC (image+.cue), lossless

Ответить на тему
 
Автор Сообщение

Koralina ®

Стаж: 8 лет 3 месяца

Сообщений: 2784

Создавать темы 23-Апр-2013 22:27

[Цитировать]

VA - Thunderdome V - The Fifth Nightmare!
Жанр: Hardcore, Gabber
Страна-производитель диска: Europe
Год издания: 1995
Издатель (лейбл): Arcade
Номер по каталогу: 9902196
Аудиокодек: FLAC (*.flac)
Тип рипа: image+.cue
Битрейт аудио: lossless
Продолжительность: 2:29:44
Источник (релизер): Диск из личной коллекции
Наличие сканов в содержимом раздачи: да
Треклист:
CD1: (1:15:38)
01. Rob Gee, Repete & MC Romeo – Riot In N.Y. (4:23)
02. T.O.P.D.R.O.P. – Achtung! (Charly Lownoise & Mental Theo Remix) (4:31)
03. O.T.T. – Raw (Grunge Mix) (4:25)
04. Neophyte – Mikey (4:15)
05. Charly Lownoise & Mental Theo – Are You Ready (3:21)
06. Prophet, The – Life Experience (2:59)
07. Simstim – One Hundred & Two Hundred (3:45)
08. Speedloader – Fuckin' Speedloader (4:27)
09. Dreamteam, The – 3 The Hard Way (5:00)
10. Mutoid – The Necronomicon (4:36)
11. Three Steps Ahead – Motherfuckers You're Gonna Die (4:00)
12. Dr. Mindfuck – Beine (3:34)
13. Dano – Let The Drumcomputer Roll (3:16)
14. Hardsequencer – Feels So Good (4:40)
15. Igor – Talking About God (4:32)
16. Omar Santana – Rude Tudah Core (5:40)
17. Simstim – Basic Loudness (4:06)
18. Dreamteam, The – Be Strong (4:00)
CD2: (1:14:05)
01. T.N.T. – Kiss The Ground (4:40)
02. Sauerkraut – They're Back (4:13)
03. Too Fast For Mellow – In My House (3:11)
04. Jean Sibart & Joe Tramel – Right Is Wrong (3:52)
05. Charly Lownoise & Mental Theo – Ultimate Sextrack (4:17)
06. Dreamteam, The – Horrorz (Button's Up Mix) (3:49)
07. Human Resource – Fuck Them (4:08)
08. Dreamteam, The – Strange Illusions (4:23)
09. Simstim – For The People (4:20)
10. Tintin – Nothing Too Fhear (3:40)
11. Dano – I'm Gonna Get You (4:20)
12. Genlog – Revolution (4:24)
13. Salee – Fantasy Journey (3:35)
14. Hardliners – Motherfuckin Breakbeat (3:55)
15. Swat – The Fly Is Dead (Terminator Mix) (4:05)
16. Square Demensione – Brand New Dance (4:44)
17. Holographic – Hardcore Future (4:26)
18. Dreamteam, The – Strictly Core (3:56)

-
Лог создания рипа CD1
Exact Audio Copy V0.99 prebeta 4 from 23. January 2008
Отчёт EAC об извлечении, выполненном 23. апреля 2013, 15:15
Various / Thunderdome V - The Fifth Nightmare (CD1)
Дисковод: Optiarc DVD RW AD-7261S Adapter: 1 ID: 1
Режим чтения : Достоверность
Использование точного потока : Да
Отключение кэша аудио : Да
Использование указателей C2 : Нет
Коррекция смещения при чтении : 48
Способность читать области Lead-in и Lead-out : Нет
Заполнение пропущенных сэмплов тишиной : Да
Удаление блоков с тишиной в начале и конце : Нет
При вычислениях CRC использовались нулевые сэмплы : Да
Интерфейс : Встроенный Win32-интерфейс для Win NT/2000
Выходной формат : Внутренние WAV-операции
Формат сэмплов : 44.100 Гц; 16 бит; стерео
TOC извлечённого CD
Трек | Старт | Длительность | Начальный сектор | Конечный сектор
---------------------------------------------------------------------
1 | 0:00.32 | 4:23.33 | 32 | 19789
2 | 4:23.65 | 4:31.30 | 19790 | 40144
3 | 8:55.20 | 4:25.02 | 40145 | 60021
4 | 13:20.22 | 4:15.33 | 60022 | 79179
5 | 17:35.55 | 3:21.37 | 79180 | 94291
6 | 20:57.17 | 2:59.68 | 94292 | 107784
7 | 23:57.10 | 3:45.55 | 107785 | 124714
8 | 27:42.65 | 4:27.07 | 124715 | 144746
9 | 32:09.72 | 5:00.33 | 144747 | 167279
10 | 37:10.30 | 4:36.27 | 167280 | 188006
11 | 41:46.57 | 4:00.58 | 188007 | 206064
12 | 45:47.40 | 3:34.60 | 206065 | 222174
13 | 49:22.25 | 3:16.15 | 222175 | 236889
14 | 52:38.40 | 4:40.10 | 236890 | 257899
15 | 57:18.50 | 4:32.02 | 257900 | 278301
16 | 61:50.52 | 5:40.55 | 278302 | 303856
17 | 67:31.32 | 4:06.38 | 303857 | 322344
18 | 71:37.70 | 4:00.25 | 322345 | 340369
Характеристики диапазона извлечения и сообщения об ошибках
Выбранный диапазон
Имя файла C:\Users\Meijin\Desktop\Новая папка (4)\Various - Thunderdome V - The Fifth Nightmare (CD1).wav
Пиковый уровень 100.0 %
Качество диапазона 100.0 %
CRC теста 7F6DDA82
CRC копии 7F6DDA82
Копирование... OK
Ошибок не произошло
AccurateRip: сводка
Трек 1 точное извлечение (доверие 9) [6D7E2351]
Трек 2 точное извлечение (доверие 10) [5BB83535]
Трек 3 точное извлечение (доверие 10) [87A80E8F]
Трек 4 точное извлечение (доверие 10) [D3C5961F]
Трек 5 точное извлечение (доверие 10) [345823CD]
Трек 6 точное извлечение (доверие 10) [585F34AA]
Трек 7 точное извлечение (доверие 10) [3069E0B1]
Трек 8 точное извлечение (доверие 10) [0A110472]
Трек 9 точное извлечение (доверие 10) [EC1D061F]
Трек 10 точное извлечение (доверие 8) [FF4A91FC]
Трек 11 точное извлечение (доверие 10) [FD725C6A]
Трек 12 точное извлечение (доверие 10) [70AE449A]
Трек 13 точное извлечение (доверие 10) [BCAD3EF0]
Трек 14 точное извлечение (доверие 10) [6A6D9B4D]
Трек 15 точное извлечение (доверие 10) [73FEDF55]
Трек 16 точное извлечение (доверие 9) [567C443B]
Трек 17 точное извлечение (доверие 10) [31E45EB6]
Трек 18 точное извлечение (доверие 10) [EC716BF2]
Все треки извлечены точно
Конец отчёта
Лог создания рипа CD2
Exact Audio Copy V0.99 prebeta 4 from 23. January 2008
Отчёт EAC об извлечении, выполненном 23. апреля 2013, 15:50
Various / Thunderdome V - The Fifth Nightmare (CD2)
Дисковод: Optiarc DVD RW AD-7261S Adapter: 1 ID: 1
Режим чтения : Достоверность
Использование точного потока : Да
Отключение кэша аудио : Да
Использование указателей C2 : Нет
Коррекция смещения при чтении : 48
Способность читать области Lead-in и Lead-out : Нет
Заполнение пропущенных сэмплов тишиной : Да
Удаление блоков с тишиной в начале и конце : Нет
При вычислениях CRC использовались нулевые сэмплы : Да
Интерфейс : Встроенный Win32-интерфейс для Win NT/2000
Выходной формат : Внутренние WAV-операции
Формат сэмплов : 44.100 Гц; 16 бит; стерео
TOC извлечённого CD
Трек | Старт | Длительность | Начальный сектор | Конечный сектор
---------------------------------------------------------------------
1 | 0:00.32 | 4:40.23 | 32 | 21054
2 | 4:40.55 | 4:13.47 | 21055 | 40076
3 | 8:54.27 | 3:11.15 | 40077 | 54416
4 | 12:05.42 | 3:52.15 | 54417 | 71831
5 | 15:57.57 | 4:17.20 | 71832 | 91126
6 | 20:15.02 | 3:48.73 | 91127 | 108299
7 | 24:04.00 | 4:08.70 | 108300 | 126969
8 | 28:12.70 | 4:23.07 | 126970 | 146701
9 | 32:36.02 | 4:20.55 | 146702 | 166256
10 | 36:56.57 | 3:40.55 | 166257 | 182811
11 | 40:37.37 | 4:19.73 | 182812 | 202309
12 | 44:57.35 | 4:24.10 | 202310 | 222119
13 | 49:21.45 | 3:35.22 | 222120 | 238266
14 | 52:56.67 | 3:55.33 | 238267 | 255924
15 | 56:52.25 | 4:05.52 | 255925 | 274351
16 | 60:58.02 | 4:44.18 | 274352 | 295669
17 | 65:42.20 | 4:26.67 | 295670 | 315686
18 | 70:09.12 | 3:56.20 | 315687 | 333406
Характеристики диапазона извлечения и сообщения об ошибках
Выбранный диапазон
Имя файла C:\Users\Meijin\Desktop\Новая папка (4)\Various - Thunderdome V - The Fifth Nightmare (CD2).wav
Пиковый уровень 99.9 %
Качество диапазона 100.0 %
CRC теста 4C95F311
CRC копии 4C95F311
Копирование... OK
Ошибок не произошло
AccurateRip: сводка
Трек 1 точное извлечение (доверие 7) [220A5AF9]
Трек 2 точное извлечение (доверие 7) [5F62C42B]
Трек 3 точное извлечение (доверие 7) [5651765E]
Трек 4 точное извлечение (доверие 7) [01922D0B]
Трек 5 точное извлечение (доверие 7) [DCD0645D]
Трек 6 точное извлечение (доверие 7) [E45D2133]
Трек 7 точное извлечение (доверие 6) [5F00D50E]
Трек 8 точное извлечение (доверие 7) [7FD67582]
Трек 9 точное извлечение (доверие 7) [C8BA7D89]
Трек 10 точное извлечение (доверие 7) [9A43F5BA]
Трек 11 точное извлечение (доверие 7) [CAD9195C]
Трек 12 точное извлечение (доверие 7) [B8409B82]
Трек 13 точное извлечение (доверие 7) [5B4024A6]
Трек 14 точное извлечение (доверие 7) [15E88E25]
Трек 15 точное извлечение (доверие 7) [1B143AA2]
Трек 16 точное извлечение (доверие 7) [8CE20493]
Трек 17 точное извлечение (доверие 7) [15B2B242]
Трек 18 точное извлечение (доверие 7) [D2027F74]
Все треки извлечены точно
Конец отчёта
[Профиль] [ЛС]
Показать сообщения:    
Ответить на тему

Текущее время: 28-Сен 17:58

Часовой пояс: UTC + 3



Вы не можете начинать темы
Вы не можете отвечать на сообщения
Вы не можете редактировать свои сообщения
Вы не можете удалять свои сообщения
Вы не можете голосовать в опросах
Вы не можете прикреплять файлы к сообщениям
Вы не можете скачивать файлы