(Pop) Рома Жуков - D.I.S.C.O. - 2013, FLAC (image+.cue), lossless

Ответить на тему
 
Автор Сообщение

2v2w ®

Стаж: 7 лет 2 месяца

Сообщений: 1913

Создавать темы 22-Апр-2013 22:37

[Цитировать]

--Рома Жуков - D.I.S.C.O.-- Жанр: Pop
Страна-производитель диска: Россия
Год издания диска: 2013
Издатель (лейбл): Квадро-Диск
Номер по каталогу: KTL13-080
Аудио кодек: FLAC
Тип рипа: image+.cue
Битрейт аудио: lossless
Продолжительность: 00:44:49
Наличие сканов в содержимом раздачи: 600 dpi, JPG
Треклист:


01. Моя звезда
02. Бриллиантовый дождь
03. Переливы
04. Слушай
05. Сны на рассвете
06. Давайте вместе
07. Диско ночь
08. Цветы на асфальте
09. Зимний закат
10. Хрустальные моменты
11. Фотография
12. Принц и принцесса
Отчёт EAC
Exact Audio Copy V0.99 prebeta 5 from 4. May 2009
EAC extraction logfile from 22. April 2013, 23:29
Рома Жуков / D.I.S.C.O.
Used drive : PLEXTOR CD-R PX-W5224A Adapter: 4 ID: 2
Read mode : Secure
Utilize accurate stream : Yes
Defeat audio cache : Yes
Make use of C2 pointers : No
Read offset correction : 30
Overread into Lead-In and Lead-Out : Yes
Fill up missing offset samples with silence : Yes
Delete leading and trailing silent blocks : No
Null samples used in CRC calculations : Yes
Used interface : Installed external ASPI interface
Used output format : Internal WAV Routines
Sample format : 44.100 Hz; 16 Bit; Stereo
TOC of the extracted CD
Track | Start | Length | Start sector | End sector
---------------------------------------------------------
1 | 0:00.00 | 4:06.44 | 0 | 18493
2 | 4:06.44 | 3:46.44 | 18494 | 35487
3 | 7:53.13 | 3:31.07 | 35488 | 51319
4 | 11:24.20 | 3:25.19 | 51320 | 66713
5 | 14:49.39 | 4:01.41 | 66714 | 84829
6 | 18:51.05 | 4:07.56 | 84830 | 103410
7 | 22:58.61 | 2:57.43 | 103411 | 116728
8 | 25:56.29 | 3:20.57 | 116729 | 131785
9 | 29:17.11 | 4:09.00 | 131786 | 150460
10 | 33:26.11 | 4:19.10 | 150461 | 169895
11 | 37:45.21 | 3:39.44 | 169896 | 186364
12 | 41:24.65 | 3:24.38 | 186365 | 201702
Range status and errors
Selected range
Filename M:\FLAC (bruk67)\MP3\Рома Жуков - D.I.S.C.O. (2013) FLAC\Рома Жуков - D.I.S.C.O..wav
Peak level 99.7 %
Range quality 99.9 %
Test CRC 6C6E1A91
Copy CRC 6C6E1A91
Copy OK
No errors occurred
AccurateRip summary
Track 1 not present in database
Track 2 not present in database
Track 3 not present in database
Track 4 not present in database
Track 5 not present in database
Track 6 not present in database
Track 7 not present in database
Track 8 not present in database
Track 9 not present in database
Track 10 not present in database
Track 11 not present in database
Track 12 not present in database
None of the tracks are present in the AccurateRip database
End of status report

[Профиль] [ЛС]
Показать сообщения:    
Ответить на тему

Текущее время: 05-Дек 23:57

Часовой пояс: UTC + 4



Вы не можете начинать темы
Вы не можете отвечать на сообщения
Вы не можете редактировать свои сообщения
Вы не можете удалять свои сообщения
Вы не можете голосовать в опросах
Вы не можете прикреплять файлы к сообщениям
Вы не можете скачивать файлы