Зеленый рай. Карибское сокровище / Green Paradise. Caribbean Treasure (Жан-Ив Кашар / Jean-Yves Cachare) [2007, Документальный, HDTV 1080i] эпизод 7

Ответить на тему
 
Автор Сообщение

Koralina ®

Стаж: 7 лет 8 месяцев

Сообщений: 2785

Создавать темы 19-Апр-2013 21:23

[Цитировать]

Зеленый рай. Карибское сокровище / Green Paradise. Caribbean Treasure Год выпуска: 2007
Страна: Франция
Студия: ARTE G.E.I.E.
Жанр: Документальный
Продолжительность: 00:26:14
Перевод: Профессиональный (двухголосый закадровый)
Доп. инфо о переводе: ТПО «РЕД МЕДИА»
Русские субтитры: нет
Режиссер: Жан-Ив Кашар / Jean-Yves Cachare
Описание: 6 декабря 1492 года Христофор Колумб высадился на неизвестном острове, который он впоследствии назвал Эспаньолой (маленькой Испанией). "Эспаньола - это чудо. Во всей Кастилии не сыскать места, которые бы сравнилось с ним по красоте и качеству. Мы нашли Эдем" - вот слова из дневника Христофора Колумба.
Приглашаем вас в путешествие на далекую и прекрасную Доминикану - настоящий туристический рай...
Тип релиза: HDTV 1080i
Контейнер: M2TS
Видео: MPEG-4 AVC Video, 1920 х 1080 (16:9), 25,000 кадров/сек, 10,6 Мбит/сек, 0.204 бит/пиксель
Аудио: Audio Coding 3, 48,0 КГц, 192 Кбит/сек, 2 канала (Front: L R)
Автор рипа: Отец Лоренцо
MediaInfo
Общее
Идентификатор : 0 (0x0)
Полное имя : D:\torrent\Зеленый рай. Карибское сокровище (эпизод 7).m2ts
Формат : BDAV
Формат/Информация : Blu-ray Video
Размер файла : 2,06 Гбайт
Продолжительность : 26 м.
Режим общего битрейта : Переменный
Общий поток : 11,2 Мбит/сек
Максимальный общий битрейт : 24,0 Мбит/сек
Видео
Идентификатор : 4113 (0x1011)
Идентификатор меню : 1 (0x1)
Формат : AVC
Формат/Информация : Advanced Video Codec
Профиль формата : High@L4.0
Параметр CABAC формата : Нет
Параметр ReFrames формата : 2 кадра
Параметр GOP формата : M=3, N=15
Идентификатор кодека : 27
Продолжительность : 26 м.
Вид битрейта : Переменный
Битрейт : 10,6 Мбит/сек
Максимальный битрейт : 20,0 Мбит/сек
Ширина : 1920 пикселей
Высота : 1080 пикселей
Соотношение сторон : 16:9
Частота кадров : 25,000 кадров/сек
Стандарт вещания : PAL
Цветовое пространство : YUV
Субдискретизация насыщенности : 4:2:0
Битовая глубина : 8 бит
Тип развёртки : MBAFF
Бит/(Пиксели*Кадры) : 0.204
Размер потока : 1,94 Гбайт (94%)
Основные цвета : BT.709
Характеристики трансфера : BT.709
Коэффициенты матрицы : BT.709
Аудио
Идентификатор : 4352 (0x1100)
Идентификатор меню : 1 (0x1)
Формат : AC-3
Формат/Информация : Audio Coding 3
Расширение режима : CM (complete main)
Параметр Endianness формата : Big
Идентификатор кодека : 129
Продолжительность : 26 м.
Вид битрейта : Постоянный
Битрейт : 192 Кбит/сек
Каналы : 2 канала
Расположение каналов : Front: L R
Частота : 48,0 КГц
Битовая глубина : 16 бит
Метод сжатия : С потерями
Размер потока : 36,0 Мбайт (2%)
Скриншоты
[Профиль] [ЛС]
Показать сообщения:    
Ответить на тему

Текущее время: 28-Фев 12:01

Часовой пояс: UTC + 4



Вы не можете начинать темы
Вы не можете отвечать на сообщения
Вы не можете редактировать свои сообщения
Вы не можете удалять свои сообщения
Вы не можете голосовать в опросах
Вы не можете прикреплять файлы к сообщениям
Вы не можете скачивать файлы