Саперы Кровавой Дороги / Heroes of Hell's Highway (2-3 серии из 3) (Allen Feuer) [2012, документальный фильм, SATRip]

Ответить на тему
 
Автор Сообщение

Koralina ®

Стаж: 7 лет 4 месяца

Сообщений: 3295

Создавать темы 28-Фев-2013 02:06

[Цитировать]

Саперы Кровавой Дороги / Heroes of Hell's Highway (2-3 серии из 3)
Год выпуска: 2012
Страна: США
Жанр: документальный фильм
Продолжительность: ~45 мин
Перевод: Студийный (одноголосый закадровый)
Русские субтитры: нет
Режиссер: Allen Feuer
Описание: Посмотрите, как специальная рота по обезвреживанию дорог ищет и уничтожает самодельные взрывные устройства, которые являются первой причиной гибели солдат в Афганистане.
Сэмпл: http://multi-up.com/836608
Качество: SATRip
Формат: MP4
Видеокодек: H.264
Аудиокодек: AC3
Видео: H.264, 2000 Кбит/сек, 720x400, 25fps
Аудио: AC3, 2 ch, 48,0 КГц, 192 Кбит/сек
Список выпусков/серий
1) Welcome to Afghanistan
2) After the Blast
3) Bomb at the Front Door
MediaInfo
Complete name : Саперы Кровавой Дороги. Heroes of Hell's Highway\Heroes of Hell's Highway 1x02.mp4
Format : MPEG-4
Format profile : Base Media / Version 2
Codec ID : mp42
File size : 689 MiB
Duration : 43mn 44s
Overall bit rate : 2 202 Kbps
Encoded date : UTC 2013-02-27 08:05:29
Tagged date : UTC 2013-02-27 08:34:25
Writing application : HandBrake 0.9.8 2012071700
Video
ID : 1
Format : AVC
Format/Info : Advanced Video Codec
Format profile : Main@L3.0
Format settings, CABAC : Yes
Format settings, ReFrames : 4 frames
Codec ID : avc1
Codec ID/Info : Advanced Video Coding
Duration : 43mn 44s
Bit rate mode : Variable
Bit rate : 2 000 Kbps
Width : 720 pixels
Height : 400 pixels
Display aspect ratio : 16:9
Frame rate mode : Constant
Frame rate : 25.000 fps
Color space : YUV
Chroma subsampling : 4:2:0
Bit depth : 8 bits
Scan type : Progressive
Bits/(Pixel*Frame) : 0.278
Stream size : 628 MiB (91%)
Writing library : x264 core 120
Encoding settings : cabac=1 / ref=3 / deblock=1:-1:-1 / analyse=0x1:0x111 / me=hex / subme=8 / psy=1 / psy_rd=1.00:0.00 / mixed_ref=1 / me_range=16 / chroma_me=1 / trellis=1 / 8x8dct=0 / cqm=0 / deadzone=21,11 / fast_pskip=1 / chroma_qp_offset=-2 / threads=6 / sliced_threads=0 / nr=0 / decimate=1 / interlaced=0 / bluray_compat=0 / constrained_intra=0 / bframes=3 / b_pyramid=2 / b_adapt=1 / b_bias=0 / direct=1 / weightb=1 / open_gop=0 / weightp=1 / keyint=250 / keyint_min=25 / scenecut=40 / intra_refresh=0 / rc_lookahead=10 / rc=abr / mbtree=1 / bitrate=2000 / ratetol=1.0 / qcomp=0.60 / qpmin=3 / qpmax=69 / qpstep=4 / ip_ratio=1.40 / aq=1:1.00
Encoded date : UTC 2013-02-27 08:05:29
Tagged date : UTC 2013-02-27 08:34:25
Color primaries : BT.601 NTSC
Transfer characteristics : BT.709
Matrix coefficients : BT.601
Audio
ID : 2
Format : AC-3
Format/Info : Audio Coding 3
Mode extension : CM (complete main)
Format settings, Endianness : Big
Codec ID : ac-3
Duration : 43mn 44s
Bit rate mode : Constant
Bit rate : 192 Kbps
Channel(s) : 2 channels
Channel positions : Front: L R
Sampling rate : 48.0 KHz
Bit depth : 16 bits
Compression mode : Lossy
Delay relative to video : 80ms
Stream size : 60.1 MiB (9%)
Language : Russian
Encoded date : UTC 2013-02-27 08:05:29
Tagged date : UTC 2013-02-27 08:34:25
Скриншоты
[Профиль] [ЛС]
Показать сообщения:    
Ответить на тему

Текущее время: 15-Окт 13:53

Часовой пояс: UTC + 4



Вы не можете начинать темы
Вы не можете отвечать на сообщения
Вы не можете редактировать свои сообщения
Вы не можете удалять свои сообщения
Вы не можете голосовать в опросах
Вы не можете прикреплять файлы к сообщениям
Вы не можете скачивать файлы