(Rock) Александр Барыкин - Grand Collection - 2008, FLAC (image+.cue), lossless

Ответить на тему
 
Автор Сообщение

2v2w ®

Стаж: 7 лет

Сообщений: 1910

Создавать темы 18-Фев-2013 13:08

[Цитировать]

--Александр Барыкин - Grand Collection-- Жанр: Rock
Страна-производитель диска: Россия
Год издания диска: 2008
Издатель (лейбл): Квадро-диск
Номер по каталогу: CGR 010 N
Страна: Россия
Аудиокодек: FLAC (*.flac)
Тип рипа: image+.cue
Битрейт аудио: lossless
Продолжительность: 01:11:32
Наличие сканов в содержимом раздачи: да
Треклист:


01.Стоп мотор [06:17]
02. Здравствуй и прощай [04:54]
03. Букет [03:40]
04. 20:00 [04:01]
05. Говори мне о любви [04:22]
06. Тает, тает [04:25]
07. Про Федю Протасова [03:38]
08. За той рекой [04:06]
09. Фея с НЛО [06:06]
10. Чудо остров [04:12]
11. Звёздный корабль [04:02]
12. Рыбка [04:33]
13. Боб Марлей и тётя Варя [04:54]
14. Сумерки [03:42]
15. У ворот [04:41]
16. Казак [03:52]
Отчёт EAC
Exact Audio Copy V1.0 beta 2 from 29. April 2011
EAC extraction logfile from 19. November 2011, 19:40
Александр Барыкин / Grand Collection
Used drive : Optiarc DVD RW AD-5260S Adapter: 1 ID: 1
Read mode : Secure
Utilize accurate stream : Yes
Defeat audio cache : Yes
Make use of C2 pointers : No
Read offset correction : 48
Overread into Lead-In and Lead-Out : No
Fill up missing offset samples with silence : Yes
Delete leading and trailing silent blocks : No
Null samples used in CRC calculations : Yes
Used interface : Installed external ASPI interface
Used output format : Internal WAV Routines
Sample format : 44.100 Hz; 16 Bit; Stereo
TOC of the extracted CD
Track | Start | Length | Start sector | End sector
---------------------------------------------------------
1 | 0:00.00 | 6:17.05 | 0 | 28279
2 | 6:17.05 | 4:54.59 | 28280 | 50388
3 | 11:11.64 | 3:40.47 | 50389 | 66935
4 | 14:52.36 | 4:01.45 | 66936 | 85055
5 | 18:54.06 | 4:22.70 | 85056 | 104775
6 | 23:17.01 | 4:25.37 | 104776 | 124687
7 | 27:42.38 | 3:38.49 | 124688 | 141086
8 | 31:21.12 | 4:06.48 | 141087 | 159584
9 | 35:27.60 | 6:06.00 | 159585 | 187034
10 | 41:33.60 | 4:12.02 | 187035 | 205936
11 | 45:45.62 | 4:02.05 | 205937 | 224091
12 | 49:47.67 | 4:33.63 | 224092 | 244629
13 | 54:21.55 | 4:54.35 | 244630 | 266714
14 | 59:16.15 | 3:42.41 | 266715 | 283405
15 | 62:58.56 | 4:41.49 | 283406 | 304529
16 | 67:40.30 | 3:52.45 | 304530 | 321974
Range status and errors
Selected range
Filename D:\EAC\Александр Барыкин - Grand Collection.wav
Peak level 99.9 %
Extraction speed 4.4 X
Range quality 100.0 %
Test CRC C891F9BD
Copy CRC C891F9BD
Copy OK
No errors occurred
AccurateRip summary
Track 1 not present in database
Track 2 not present in database
Track 3 not present in database
Track 4 not present in database
Track 5 not present in database
Track 6 not present in database
Track 7 not present in database
Track 8 not present in database
Track 9 not present in database
Track 10 not present in database
Track 11 not present in database
Track 12 not present in database
Track 13 not present in database
Track 14 not present in database
Track 15 not present in database
Track 16 not present in database
None of the tracks are present in the AccurateRip database
End of status report
==== Log checksum 3A43F090D86C6D1B2FA2178E0CF1D6C4C29486453ABC644A7E83BC76C1C37A5A ====

[Профиль] [ЛС]
Показать сообщения:    
Ответить на тему

Текущее время: 15-Окт 14:00

Часовой пояс: UTC + 4



Вы не можете начинать темы
Вы не можете отвечать на сообщения
Вы не можете редактировать свои сообщения
Вы не можете удалять свои сообщения
Вы не можете голосовать в опросах
Вы не можете прикреплять файлы к сообщениям
Вы не можете скачивать файлы