Нереальная история (серии 1-20 из 20) [2011 г., Телепередача - комедия, SATRip]

Ответить на тему
 
Автор Сообщение

vasiliew.slava ®

Стаж: 7 лет 4 месяца

Сообщений: 1090

Откуда: Иваново

Создавать темы 17-Фев-2013 19:23

[Цитировать]

-Нереальная история (2011) SATRip--
Режиссер / Телекомпания: Кирилл Папакуль / СТС
Год выпуска: 2011
Жанр: Телепередача - комедия
Продолжительность: 20 x ~ 00:24:00-В ролях:
Дмитрий Брекоткин, Андрей Рожков, Михаил Башкатов, Ольга Тумайкина, Сергей Дорогов, Лика Каширина, Олег Комаров, Дмитрий Соколов, Евгения Крегжде, Аслан Бижоев-Описание:
Знаешь ли ты, что Иван Грозный не убивал своего сына? Что первые гаишники появились еще до крещения Руси?
Что Наталья Гончарова была первой русской гламурной тусовщицей? Наконец, что iPhone изобрели в 1930-х в Советском Союзе?
Скоро узнаешь! СТС расскажет свою нереальную историю от первобытного общества до бандитских 90-х.
- -Качество видео: SATRip
Формат: AVI
Видеокодек: Xvid
Аудиокодек: MP3
Видео: 720 x 400, ~1427 Кбит/сек, 25,000 кадров/сек
Аудио: 192 Кбит/сек, 2 канала, 48,0 КГц-
MediaInfo
Общее
Полное имя : Нереальная История (20 из 20)\Nerealnaya.istoriya.01-02.2011.SATRip.KinozalSAT.avi
Формат : AVI
Формат/Информация : Audio Video Interleave
Размер файла : 550 Мбайт
Продолжительность : 47 м.
Общий поток : 1627 Кбит/сек
Программа кодирования : VirtualDubMod 1.5.4.1 (build 2178/release)
Библиотека кодирования : VirtualDubMod build 2178/release
Видео
Идентификатор : 0
Формат : MPEG-4 Visual
Профиль формата : Advanced Simple@L5
Параметр BVOP формата : 1
Параметр QPel формата : Нет
Параметр GMC формата : Без точки перехода
Параметр матрицы формата : Выборочная
Идентификатор кодека : XVID
Идентификатор кодека/Подсказка : XviD
Продолжительность : 47 м.
Битрейт : 1427 Кбит/сек
Ширина : 720 пикселей
Высота : 400 пикселей
Соотношение сторон : 16:9
Частота кадров : 25,000 кадров/сек
Цветовое пространство : YUV
Субдискретизация насыщенности : 4:2:0
Битовая глубина : 8 бит
Тип развёртки : Прогрессивная
Метод сжатия : С потерями
Бит/(Пиксели*Кадры) : 0.198
Размер потока : 483 Мбайт (88%)
Библиотека кодирования : XviD 1.2.1 (UTC 2008-12-04)
Аудио
Идентификатор : 1
Формат : MPEG Audio
Версия формата : Version 1
Профиль формата : Layer 3
Режим : Joint stereo
Расширение режима : MS Stereo
Идентификатор кодека : 55
Идентификатор кодека/Подсказка : MP3
Продолжительность : 47 м.
Вид битрейта : Постоянный
Битрейт : 192 Кбит/сек
Каналы : 2 канала
Частота : 48,0 КГц
Метод сжатия : С потерями
Размер потока : 64,9 Мбайт (12%)
Выравнивание : Соединение по промежуткам
Продолжительность промежутка : 80 мс. (2,00 видеокадра)
Время предзагрузки промежутка : 504 мс.
Библиотека кодирования : LAME3.97
Настройки программы : -m j -V 4 -q 2 -lowpass 18.6 -b 192
[Профиль] [ЛС]
Показать сообщения:    
Ответить на тему

Текущее время: 15-Окт 12:34

Часовой пояс: UTC + 4



Вы не можете начинать темы
Вы не можете отвечать на сообщения
Вы не можете редактировать свои сообщения
Вы не можете удалять свои сообщения
Вы не можете голосовать в опросах
Вы не можете прикреплять файлы к сообщениям
Вы не можете скачивать файлы