По следам тайны. В подземных лабиринтах Эквадора (Армен Петросян) [2013, Документальный, DVB]

Ответить на тему
 
Автор Сообщение

Koralina ®

Стаж: 7 лет 10 месяцев

Сообщений: 2785

Создавать темы 09-Фев-2013 00:38

[Цитировать]

По следам тайны. В подземных лабиринтах Эквадора
Год выпуска: 2013
Страна: Россия
Жанр: Документальный
Продолжительность: 00:44:56
Перевод: Не требуется
Русские субтитры: нет
Режиссер: Армен Петросян
Описание: В 1965 году в Эквадоре этнолог Хуан Мориц при помощи местных индейцев обнаружил огромный подземный лабиринт Лос-Тайос и древнюю библиотеку, которая насчитывала тысячи книг из тонких металлических пластин, покрытых странными символами. Мориц писал: "На этих пластинах, вероятно, изложена история исчезнувших цивилизаций, о которых на сегодняшний день мы не имеем ни малейшего понятия". Мориц пригласил швейцарского исследователя Эриха фон Дэникена, автора знаменитого фильма "Воспоминания о будущем", чтобы тот лично мог осмотреть находки. По мнению Дэникена, эта библиотека была оставлена землянам как дар инопланетных разумных существ. Однако вышедшую вскоре его книгу "Золото богов" объявили научной мистификацией. Дэникену все же удалось установить точные координаты пещеры, которые он называет в фильме, но путь туда настолько труден и опасен, что пока его не одолела ни одна экспедиция…
Качество: DVB
Формат: MPEG
Видео кодек: MPEG2
Аудио кодек: MPEG Audio (Version 1) (Layer 2)
Видео: MPEG 2, 720 x 576, 25 fps, 3900 kbps
Аудио: MPEG Audio (Version 1) (Layer 2), 2 Ch, 48 KHz, 192 kbps
Релиз спутникового канала:
MediaInfo
General
Complete name : O:\По следам тайны. В подземных лабиринтах Эквадора.(2013)_DVB by SLuMeP.mpg
Format : MPEG-PS
File size : 1.29 GiB
Duration : 44mn 56s
Overall bit rate : 4 121 Kbps
Writing library : (c) 1998-2010 Womble Multimedia, Inc. / MPEG Video Wizard DVD 5.0.0.114 (01/2010) / Apr 20 2010
Video
ID : 224 (0xE0)
Format : MPEG Video
Format version : Version 2
Format profile : Main@Main
Format settings, BVOP : Yes
Format settings, Matrix : Default
Duration : 44mn 56s
Bit rate mode : Variable
Bit rate : 3 847 Kbps
Nominal bit rate : 15.0 Mbps
Width : 720 pixels
Height : 576 pixels
Display aspect ratio : 4:3
Frame rate : 25.000 fps
Standard : PAL
Color space : YUV
Chroma subsampling : 4:2:0
Bit depth : 8 bits
Scan type : Interlaced
Scan order : Top Field First
Bits/(Pixel*Frame) : 0.371
Stream size : 1.21 GiB (93%)
Writing library : (c) 1998-2010 Womble Multimedia, Inc. / MPEG Video Wizard DVD 5.0.0.114 (01/2010) / Apr 20 2010
Audio
ID : 192 (0xC0)
Format : MPEG Audio
Format version : Version 1
Format profile : Layer 2
Duration : 44mn 56s
Bit rate mode : Constant
Bit rate : 192 Kbps
Channel(s) : 2 channels
Sampling rate : 48.0 KHz
Video delay : -80ms
Stream size : 61.7 MiB (5%)
Скриншоты
[Профиль] [ЛС]
Показать сообщения:    
Ответить на тему

Текущее время: 05-Апр 22:55

Часовой пояс: UTC + 4



Вы не можете начинать темы
Вы не можете отвечать на сообщения
Вы не можете редактировать свои сообщения
Вы не можете удалять свои сообщения
Вы не можете голосовать в опросах
Вы не можете прикреплять файлы к сообщениям
Вы не можете скачивать файлы