[iPad] Газетчик / The Paperboy (Ли Дэниелс/ Lee Daniels) [2012, США, Триллер, BDRip, 576p] VO + Original + sub (rus, eng)

Ответить на тему
 
Автор Сообщение

Koralina ®

Стаж: 7 лет 4 месяца

Сообщений: 3295

Создавать темы 17-Янв-2013 16:10

[Цитировать]

Газетчик / The Paperboy
Год выпуска: 2012
Страна: США
Студия: Benaroya Pictures, Lee Daniels Entertainment, Millennium Films
Жанр: Триллер
Продолжительность: 01:46:45
Рейтинг MPAA: R
Перевод: Одноголосый закадровый(Lord666)
Оригинальная аудиодорожка: есть
Cубтитры: русские и английские
Режиссёр: Ли Дэниелс/ Lee Daniels
Сценарий: Питер Декстер, Ли Дэниелс
Продюссер: Эд Кэйтелл III, Ли Дэниелс, Кассиан Элвис
В ролях: Мэттью МакКонахи, Зак Эфрон, Николь Кидман, Джон Кьюсак, Мейси Грэй, Дэвид Ойелоуо, Скотт Гленн, Нед Беллами, Ниалла Гордон, Эдрик Браун
Описание:
Конец 1960-х; успешный журналист Уорд расследует дерзкое убийство влиятельного шерифа-расиста в маленьком южном городке. Его цель — освободить несправедливо осуждённого и заодно сделать вместе с коллегой из Лондона сенсационный материал. Журналистам помогает юный разносчик газет Джек — родной брат Уорда, и невероятно сексапильная блондинка Шарлотта: она влюбилась по переписке в того самого заключенного из камеры смертников. Каждому из героев есть что скрывать и чего бояться — но раскалённый воздух Юга пробуждает самые тёмные и горячие желания…
Доп. информация:

Качество исходника: BDRemux - Газетчик / The Paperboy / 2012 / ЛО / Blu-Ray Remux (1080p)
Качество: BDRip
Разрешение: 1024х432
Формат: MP4
Видео: H.264, 2,40:1 , 2500kbit/s; 23.976fps
Аудио 1: Russian/VO, AAC, 122kbit/s; 2ch; 48KHz
Аудио 2: English/Original, AAC, 126kbit/s; 2ch; 48KHz
iTunes Meta Tags
XID: Apple:vendor_id:2012-586624
contentID: 583572433
Screenwriters: Питер Декстер, Ли Дэниелс
Producers: Эд Кэйтелл III, Ли Дэниелс, Кассиан Элвис
Director: Ли Дэниелс
Cast: Мэттью МакКонахи, Зак Эфрон, Николь Кидман, Джон Кьюсак, Мейси Грэй, Дэвид Ойелоуо, Скотт Гленн, Нед Беллами, Ниалла Гордон, Эдрик Браун
Rating: 5
Long Description: Конец 1960-х; успешный журналист Уорд расследует дерзкое убийство влиятельного шерифа-расиста в маленьком южном городке. Его цель — освободить несправедливо осуждённого и заодно сделать вместе с коллегой из Лондона сенсационный материал. Журналистам помогает юный разносчик газет Джек — родной брат Уорда, и невероятно сексапильная блондинка Шарлотта: она влюбилась по переписке в того самого заключенного из камеры смертников. Каждому из героев есть что скрывать и чего бояться — но раскалённый воздух Юга пробуждает самые тёмные и горячие желания…
Description: Конец 1960-х; успешный журналист Уорд расследует дерзкое убийство влиятельного шерифа-расиста в маленьком южном городке.
Release Date: 2012-05-24T15:00:00Z
Genre: Thriller
Artist: Ли Дэниелс
Name: Газетчик
MediaInfo
General
Complete name : /Users/imac/HandBrake/The Paperboy.2012.x264.BDRip.1024x.m4v
Format : MPEG-4
Codec ID : M4V
File size : 2.05 GiB
Duration : 1h 46mn
Overall bit rate mode : Variable
Overall bit rate : 2 753 Kbps
Movie name : Газетчик
Performer : Ли Дэниелс
Genre : Thriller
Recorded date : UTC 2012-05-24 15:00:00
Encoded date : UTC 2013-01-17 09:30:37
Tagged date : UTC 2013-01-17 09:31:37
Cover : Yes
desc : Конец 1960-х; успешный журналист Уорд расследует дерзкое убийство влиятельного шерифа-расиста в маленьком южном городке.
ldes : Конец 1960-х; успешный журналист Уорд расследует дерзкое убийство влиятельного шерифа-расиста в маленьком южном городке. Его цель — освободить несправедливо осуждённого и заодно сделать вместе с коллегой из Лондона сенсационный материал. Журналистам помогает юный разносчик газет Джек — родной брат Уорда, и невероятно сексапильная блондинка Шарлотта: она влюбилась по переписке в того самого заключенного из камеры смертников. Каждому из героев есть что скрывать и чего бояться — но раскалённый воздух Юга пробуждает самые тёмные и горячие желания…
stik : 9
rtng : 0
cnID : 583572433
xid : Apple:vendor_id:2012-586624
iTunEXTC : mpaa|R|400|
iTunMOVI : <?xml version="1.0" encoding="UTF-8"?> / <!DOCTYPE plist PUBLIC "-//Apple//DTD PLIST 1.0//EN" "http://www.apple.com/DTDs/PropertyList-1.0.dtd"> / <plist version="1.0"> / <dict> / <key>cast</key> / <array> / <dict> / <key>name</key> / <string>Мэттью МакКонахи</string> / </dict> / <dict> / <key>name</key> / <string>Зак Эфрон</string> / </dict> / <dict> / <key>name</key> / <string>Николь Кидман</string> / </dict> / <dict> / <key>name</key> / <string>Джон Кьюсак</string> / </dict> / <dict> / <key>name</key> / <string>Мейси Грэй</string> / </dict> / <dict> / <key>name</key> / <string>Дэвид Ойелоуо</string> / </dict> / <dict> / <key>name</key> / <string>Скотт Гленн</string> / </dict> / <dict> / <key>name</key> / <string>Нед Беллами</string> / </dict> / <dict> / <key>name</key> / <string>Ниалла Гордон</string> / </dict> / <dict> / <key>name</key> / <string>Эдрик Браун</string> / </dict> / </array> / <key>directors</key> / <array> / <dict> / <key>name</key> / <string>Ли Дэниелс</string> / </dict> / </array> / <key>producers</key> / <array> / <dict> / <key>name</key> / <string>Эд Кэйтелл III</string> / </dict> / <dict> / <key>name</key> / <string>Ли Дэниелс</string> / </dict> / <dict> / <key>name</key> / <string>Кассиан Элвис</string> / </dict> / </array> / <key>screenwriters</key> / <array> / <dict> / <key>name</key> / <string>Питер Декстер</string> / </dict> / <dict> / <key>name</key> / <string>Ли Дэниелс</string> / </dict> / </array> / </dict> / </plist>
Video #1
ID : 1
Format : AVC
Format/Info : Advanced Video Codec
Format profile : High@L3.1
Format settings, CABAC : Yes
Format settings, ReFrames : 9 frames
Codec ID : avc1
Codec ID/Info : Advanced Video Coding
Duration : 1h 46mn
Bit rate mode : Variable
Bit rate : 2 500 Kbps
Width : 1 024 pixels
Height : 432 pixels
Display aspect ratio : 2.40:1
Frame rate mode : Variable
Frame rate : 23.976 fps
Minimum frame rate : 23.810 fps
Maximum frame rate : 24.246 fps
Color space : YUV
Chroma subsampling : 4:2:0
Bit depth : 8 bits
Scan type : Progressive
Bits/(Pixel*Frame) : 0.236
Stream size : 1.86 GiB (91%)
Writing library : x264 core 120
Encoding settings : cabac=1 / ref=9 / deblock=1:0:0 / analyse=0x3:0x113 / me=umh / subme=9 / psy=1 / psy_rd=1.00:0.00 / mixed_ref=1 / me_range=32 / chroma_me=1 / trellis=1 / 8x8dct=1 / cqm=0 / deadzone=21,11 / fast_pskip=1 / chroma_qp_offset=-2 / threads=12 / sliced_threads=0 / nr=0 / decimate=1 / interlaced=0 / bluray_compat=0 / constrained_intra=0 / bframes=6 / b_pyramid=2 / b_adapt=2 / b_bias=0 / direct=1 / weightb=1 / open_gop=0 / weightp=2 / keyint=240 / keyint_min=24 / scenecut=40 / intra_refresh=0 / rc_lookahead=40 / rc=2pass / mbtree=1 / bitrate=2500 / ratetol=1.0 / qcomp=0.60 / qpmin=3 / qpmax=69 / qpstep=4 / cplxblur=20.0 / qblur=0.5 / ip_ratio=1.40 / aq=1:1.00
Language : English
Encoded date : UTC 2013-01-17 09:30:37
Tagged date : UTC 2013-01-17 09:31:27
Color primaries : BT.709-5, BT.1361, IEC 61966-2-4, SMPTE RP177
Transfer characteristics : BT.709-5, BT.1361
Matrix coefficients : BT.709-5, BT.1361, IEC 61966-2-4 709, SMPTE RP177
Video #2
ID : 7
Format : JPEG
Codec ID : jpeg
Duration : 1h 46mn
Bit rate mode : Variable
Bit rate : 567 bps
Width : 640 pixels
Height : 270 pixels
Display aspect ratio : 2.40:1
Frame rate mode : Variable
Frame rate : 0.002 fps
Minimum frame rate : 0.001 fps
Maximum frame rate : 0.003 fps
Color space : YUV
Chroma subsampling : 4:2:0
Bit depth : 8 bits
Compression mode : Lossy
Bits/(Pixel*Frame) : 1.641
Stream size : 415 KiB (0%)
Language : English
Encoded date : UTC 2013-01-17 09:31:36
Tagged date : UTC 2013-01-17 09:31:37
Audio #1
ID : 2
Format : AAC
Format/Info : Advanced Audio Codec
Format profile : LC
Codec ID : 40
Duration : 1h 46mn
Bit rate mode : Variable
Bit rate : 122 Kbps
Maximum bit rate : 185 Kbps
Channel(s) : 2 channels
Channel positions : Front: L R
Sampling rate : 48.0 KHz
Compression mode : Lossy
Stream size : 93.1 MiB (4%)
Language : Russian
Encoded date : UTC 2013-01-17 09:30:37
Tagged date : UTC 2013-01-17 09:31:29
Audio #2
ID : 3
Format : AAC
Format/Info : Advanced Audio Codec
Format profile : LC
Codec ID : 40
Duration : 1h 46mn
Bit rate mode : Variable
Bit rate : 126 Kbps
Maximum bit rate : 192 Kbps
Channel(s) : 2 channels
Channel positions : Front: L R
Sampling rate : 48.0 KHz
Compression mode : Lossy
Stream size : 96.0 MiB (5%)
Language : English
Encoded date : UTC 2013-01-17 09:30:37
Tagged date : UTC 2013-01-17 09:31:32
Text #1
ID : 4
Format : Timed text
Muxing mode : sbtl
Codec ID : tx3g
Duration : 1h 41mn
Bit rate mode : Variable
Bit rate : 113 bps
Stream size : 84.2 KiB (0%)
Language : Russian
Encoded date : UTC 2013-01-17 09:30:37
Tagged date : UTC 2013-01-17 09:31:32
Text #2
ID : 5
Format : Timed text
Muxing mode : sbtl
Codec ID : tx3g
Duration : 1h 41mn
Bit rate mode : Variable
Bit rate : 87 bps
Stream size : 64.8 KiB (0%)
Language : English
Encoded date : UTC 2013-01-17 09:30:37
Tagged date : UTC 2013-01-17 09:31:32
Text #3
ID : 6
Format : Apple text
Codec ID : text
Duration : 1h 46mn
Bit rate mode : Constant
Bit rate : 0 bps
Stream size : 312 Bytes (0%)
Language : English
Encoded date : UTC 2013-01-17 09:31:32
Tagged date : UTC 2013-01-17 09:31:32
Menu
00:00:00.000 : 00:00:00.000
00:10:40.973 : 00:10:40.890
00:17:55.907 : 00:17:55.825
00:25:20.893 : 00:25:20.728
00:35:44.391 : 00:35:44.309
00:44:15.026 : 00:44:14.861
00:53:35.044 : 00:53:34.962
01:02:37.711 : 01:02:37.587
01:12:17.248 : 01:12:17.166
01:21:43.939 : 01:21:43.857
01:30:29.172 : 01:30:29.090
01:41:49.184 : 01:41:49.103
x264 лог
x264 [info]: frame I:1203 Avg QP:18.05 size: 77726 PSNR Mean Y:44.79 U:47.12 V:48.07 Avg:45.38 Global:44.81
x264 [info]: frame P:32076 Avg QP:20.70 size: 25305 PSNR Mean Y:42.88 U:46.06 V:47.67 Avg:43.60 Global:42.66
x264 [info]: frame B:120297 Avg QP:23.06 size: 9091 PSNR Mean Y:40.92 U:44.67 V:46.87 Avg:41.83 Global:41.29
x264 [info]: consecutive B-frames: 1.6% 1.8% 3.8% 28.4% 16.4% 26.3% 21.6%
x264 [info]: mb I I16..4: 7.5% 75.7% 16.7%
x264 [info]: mb P I16..4: 1.4% 14.0% 1.6% P16..4: 36.3% 24.3% 14.8% 0.0% 0.0% skip: 7.6%
x264 [info]: mb B I16..4: 0.1% 2.4% 0.2% B16..8: 44.8% 9.6% 3.2% direct: 4.6% skip:35.2% L0:46.1% L1:48.8% BI: 5.2%
x264 [info]: 8x8 transform intra:83.8% inter:69.5%
x264 [info]: coded y,uvDC,uvAC intra: 92.6% 87.2% 70.4% inter: 30.9% 33.4% 9.5%
x264 [info]: i16 v,h,dc,p: 39% 16% 10% 35%
x264 [info]: i8 v,h,dc,ddl,ddr,vr,hd,vl,hu: 7% 5% 3% 12% 17% 16% 15% 12% 12%
x264 [info]: i4 v,h,dc,ddl,ddr,vr,hd,vl,hu: 6% 5% 2% 11% 17% 16% 16% 13% 14%
x264 [info]: i8c dc,h,v,p: 50% 16% 14% 19%
x264 [info]: Weighted P-Frames: Y:4.0% UV:1.5%
x264 [info]: ref P L0: 43.6% 11.3% 20.0% 6.4% 6.5% 3.6% 4.2% 1.8% 2.4% 0.1% 0.0%
x264 [info]: ref B L0: 71.5% 13.2% 6.0% 3.6% 2.3% 2.1% 1.0% 0.4%
x264 [info]: ref B L1: 92.7% 7.3%
x264 [info]: SSIM Mean Y:0.9502113 (13.029db)
x264 [info]: PSNR Mean Y:41.359 U:44.977 V:47.051 Avg:42.229 Global:41.560 kb/s:2496.43
Скриншоты
[Профиль] [ЛС]
Показать сообщения:    
Ответить на тему

Текущее время: 15-Окт 13:32

Часовой пояс: UTC + 4



Вы не можете начинать темы
Вы не можете отвечать на сообщения
Вы не можете редактировать свои сообщения
Вы не можете удалять свои сообщения
Вы не можете голосовать в опросах
Вы не можете прикреплять файлы к сообщениям
Вы не можете скачивать файлы