(Drum & Bass) VA - The Lowdown 3 - Mixed By B.L.I.M. (Knowledge Magazine [KN 2.08 LWDN 03]) CD - 1999, FLAC (tracks+.cue), lossless

Ответить на тему
 
Автор Сообщение

Koralina ®

Стаж: 8 лет 3 месяца

Сообщений: 2784

Создавать темы 03-Янв-2013 23:23

[Цитировать]

Various Artists - The Lowdown 3 - Mixed by B.L.I.M.
Жанр: Drum & Bass
Страна-производитель диска: UK
Год издания: 1999
Источник по discogs: http://www.discogs.com/BLIM-The-Lowdown-3/release/772402
Издатель (лейбл): Knowledge Magazine
Номер по каталогу: KN 2.08 LWDN 03
Страна: UK
Аудиокодек: FLAC (*.flac)
Тип рипа: tracks+.cue
Битрейт аудио: lossless
Продолжительность: 01:01:25
Источник (релизер): what
Наличие сканов в содержимом раздачи: нет
Треклист:
01. DJ Teebee - Invasion (4:06)
02. Acetate - Visual (3:14)
03. DJ SS - Time Out In Toronto (3:24)
04. Kinnetix - Critical Mass (3:18)
05. DJ Die - Slide Away (1:46)
06. IQ Collective - Velocity (4:05)
07. Babylonian - Ninja Bass (2:54)
08. Edge Of Motion - Contact (3:00)
09. B.L.I.M. vs Clinical - Moraian (Filthy Dirty Rich Remix) (2:12)
10. Served Chilled - Prophecy (2:58)
11. Perfect Combination - Technical Switch (2:00)
12. Danny Breaks - Definition (4:00)
13. Vinyl Syndicate - Man Of Steal (2:55)
14. Black Science Labs - Son Of Silence (2:49)
15. Biostacis - New Realm (2:16)
16. Cybernet - Code 202 (2:59)
17. Click 'n Cycle - Shabeen (2:00)
18. Icarus - Moth (2nd Filament) (3:00)
19. Danny Byrd - Walk Tall (2:00)
20. One True Parker - Killer (B.L.I.M Remix) (6:24)
Лог создания рипа
X Lossless Decoder version 20121027 (142.1)
XLD extraction logfile from 2012-11-16 11:30:17 -0500
Various Artists / The Lowdown 3 - Mixed By B.L.I.M.
Used drive : MATSHITA DVD-R UJ-898 (revision HE13)
Ripper mode : XLD Secure Ripper
Disable audio cache : OK for the drive with a cache less than 1375KiB
Make use of C2 pointers : NO
Read offset correction : 102
Max retry count : 20
Gap status : Analyzed, Appended
TOC of the extracted CD
Track | Start | Length | Start sector | End sector
---------------------------------------------------------
1 | 00:00:00 | 04:06:60 | 0 | 18509
2 | 04:06:60 | 03:14:06 | 18510 | 33065
3 | 07:20:66 | 03:24:06 | 33066 | 48371
4 | 10:44:72 | 03:18:63 | 48372 | 63284
5 | 14:03:60 | 01:46:69 | 63285 | 71303
6 | 15:50:54 | 04:05:06 | 71304 | 89684
7 | 19:55:60 | 02:54:69 | 89685 | 102803
8 | 22:50:54 | 03:00:00 | 102804 | 116303
9 | 25:50:54 | 02:12:06 | 116304 | 126209
10 | 28:02:60 | 02:58:00 | 126210 | 139559
11 | 31:00:60 | 02:00:00 | 139560 | 148559
12 | 33:00:60 | 04:00:00 | 148560 | 166559
13 | 37:00:60 | 02:55:00 | 166560 | 179684
14 | 39:55:60 | 02:49:00 | 179685 | 192359
15 | 42:44:60 | 02:16:00 | 192360 | 202559
16 | 45:00:60 | 02:59:63 | 202560 | 216047
17 | 48:00:48 | 02:00:00 | 216048 | 225047
18 | 50:00:48 | 03:00:12 | 225048 | 238559
19 | 53:00:60 | 02:00:24 | 238560 | 247583
20 | 55:01:09 | 06:24:49 | 247584 | 276432
AccurateRip Summary (DiscID: 002c49e2-02806e16-1b0e6514)
Track 01 : Not Found
Track 02 : Not Found
Track 03 : Not Found
Track 04 : Not Found
Track 05 : Not Found
Track 06 : Not Found
Track 07 : Not Found
Track 08 : Not Found
Track 09 : Not Found
Track 10 : Not Found
Track 11 : Not Found
Track 12 : Not Found
Track 13 : Not Found
Track 14 : Not Found
Track 15 : Not Found
Track 16 : Not Found
Track 17 : Not Found
Track 18 : Not Found
Track 19 : Not Found
Track 20 : Not Found
->0 track accurately ripped, 20 tracks not found
All Tracks
Album gain : -2.10 dB
Peak : 0.891266
Statistics
Read error : 0
Jitter error (maybe fixed) : 0
Retry sector count : 0
Damaged sector count : 0
Track 01
Filename : /Rip/Various Artists - 1999 - The Lowdown 3 - Mixed By B.L.I.M. [MP3]/01 Invasion.mp3
/Rip/Various Artists - 1999 - The Lowdown 3 - Mixed By B.L.I.M. [FLAC]/01 Invasion.flac
Pre-gap length : 00:02:00
Track gain : -1.05 dB
Peak : 0.891266
CRC32 hash (test run) : D82B7713
CRC32 hash : D82B7713
CRC32 hash (skip zero) : E31D19BB
AccurateRip v1 signature : 4B513101
AccurateRip v2 signature : F0698C76
->Track not present in AccurateRip database.
Statistics
Read error : 0
Jitter error (maybe fixed) : 0
Retry sector count : 0
Damaged sector count : 0
Track 02
Filename : /Rip/Various Artists - 1999 - The Lowdown 3 - Mixed By B.L.I.M. [MP3]/02 Visual.mp3
/Rip/Various Artists - 1999 - The Lowdown 3 - Mixed By B.L.I.M. [FLAC]/02 Visual.flac
Track gain : -1.24 dB
Peak : 0.891235
CRC32 hash (test run) : 261B14BB
CRC32 hash : 261B14BB
CRC32 hash (skip zero) : B2EAAE19
AccurateRip v1 signature : 9C88EF58
AccurateRip v2 signature : 16C3EE56
->Track not present in AccurateRip database.
Statistics
Read error : 0
Jitter error (maybe fixed) : 0
Retry sector count : 0
Damaged sector count : 0
Track 03
Filename : /Rip/Various Artists - 1999 - The Lowdown 3 - Mixed By B.L.I.M. [MP3]/03 Time Out In Toronto.mp3
/Rip/Various Artists - 1999 - The Lowdown 3 - Mixed By B.L.I.M. [FLAC]/03 Time Out In Toronto.flac
Track gain : -3.16 dB
Peak : 0.891266
CRC32 hash (test run) : 5BB8CE7C
CRC32 hash : 5BB8CE7C
CRC32 hash (skip zero) : 79B331F1
AccurateRip v1 signature : C138392A
AccurateRip v2 signature : 87814959
->Track not present in AccurateRip database.
Statistics
Read error : 0
Jitter error (maybe fixed) : 0
Retry sector count : 0
Damaged sector count : 0
Track 04
Filename : /Rip/Various Artists - 1999 - The Lowdown 3 - Mixed By B.L.I.M. [MP3]/04 Critical Mass.mp3
/Rip/Various Artists - 1999 - The Lowdown 3 - Mixed By B.L.I.M. [FLAC]/04 Critical Mass.flac
Track gain : -2.39 dB
Peak : 0.891266
CRC32 hash (test run) : 91ADC663
CRC32 hash : 91ADC663
CRC32 hash (skip zero) : 7828D73F
AccurateRip v1 signature : CEEFD88C
AccurateRip v2 signature : 4422BFDB
->Track not present in AccurateRip database.
Statistics
Read error : 0
Jitter error (maybe fixed) : 0
Retry sector count : 0
Damaged sector count : 0
Track 05
Filename : /Rip/Various Artists - 1999 - The Lowdown 3 - Mixed By B.L.I.M. [MP3]/05 Slide Away.mp3
/Rip/Various Artists - 1999 - The Lowdown 3 - Mixed By B.L.I.M. [FLAC]/05 Slide Away.flac
Track gain : -1.42 dB
Peak : 0.891266
CRC32 hash (test run) : 7B1A7E6C
CRC32 hash : 7B1A7E6C
CRC32 hash (skip zero) : 5980A1B8
AccurateRip v1 signature : C466C567
AccurateRip v2 signature : F4D14FC3
->Track not present in AccurateRip database.
Statistics
Read error : 0
Jitter error (maybe fixed) : 0
Retry sector count : 0
Damaged sector count : 0
Track 06
Filename : /Rip/Various Artists - 1999 - The Lowdown 3 - Mixed By B.L.I.M. [MP3]/06 Velocity.mp3
/Rip/Various Artists - 1999 - The Lowdown 3 - Mixed By B.L.I.M. [FLAC]/06 Velocity.flac
Track gain : -4.61 dB
Peak : 0.891266
CRC32 hash (test run) : 0FA70909
CRC32 hash : 0FA70909
CRC32 hash (skip zero) : 5F548D7B
AccurateRip v1 signature : A14A06D1
AccurateRip v2 signature : 5F247F44
->Track not present in AccurateRip database.
Statistics
Read error : 0
Jitter error (maybe fixed) : 0
Retry sector count : 0
Damaged sector count : 0
Track 07
Filename : /Rip/Various Artists - 1999 - The Lowdown 3 - Mixed By B.L.I.M. [MP3]/07 Ninja Bass.mp3
/Rip/Various Artists - 1999 - The Lowdown 3 - Mixed By B.L.I.M. [FLAC]/07 Ninja Bass.flac
Track gain : -2.86 dB
Peak : 0.891235
CRC32 hash (test run) : 54B87121
CRC32 hash : 54B87121
CRC32 hash (skip zero) : CF38A2D1
AccurateRip v1 signature : 4AADF567
AccurateRip v2 signature : 412FC2EB
->Track not present in AccurateRip database.
Statistics
Read error : 0
Jitter error (maybe fixed) : 0
Retry sector count : 0
Damaged sector count : 0
Track 08
Filename : /Rip/Various Artists - 1999 - The Lowdown 3 - Mixed By B.L.I.M. [MP3]/08 Contact.mp3
/Rip/Various Artists - 1999 - The Lowdown 3 - Mixed By B.L.I.M. [FLAC]/08 Contact.flac
Track gain : -2.02 dB
Peak : 0.875854
CRC32 hash (test run) : 2928C700
CRC32 hash : 2928C700
CRC32 hash (skip zero) : 6E92BB02
AccurateRip v1 signature : 59814E92
AccurateRip v2 signature : 09CDE6FB
->Track not present in AccurateRip database.
Statistics
Read error : 0
Jitter error (maybe fixed) : 0
Retry sector count : 0
Damaged sector count : 0
Track 09
Filename : /Rip/Various Artists - 1999 - The Lowdown 3 - Mixed By B.L.I.M. [MP3]/09 Morrian.mp3
/Rip/Various Artists - 1999 - The Lowdown 3 - Mixed By B.L.I.M. [FLAC]/09 Morrian.flac
Track gain : -2.70 dB
Peak : 0.891266
CRC32 hash (test run) : 44251E79
CRC32 hash : 44251E79
CRC32 hash (skip zero) : DCE0EC58
AccurateRip v1 signature : 4B574FF5
AccurateRip v2 signature : B17120A9
->Track not present in AccurateRip database.
Statistics
Read error : 0
Jitter error (maybe fixed) : 0
Retry sector count : 0
Damaged sector count : 0
Track 10
Filename : /Rip/Various Artists - 1999 - The Lowdown 3 - Mixed By B.L.I.M. [MP3]/10 Prophecy.mp3
/Rip/Various Artists - 1999 - The Lowdown 3 - Mixed By B.L.I.M. [FLAC]/10 Prophecy.flac
Track gain : -3.38 dB
Peak : 0.891266
CRC32 hash (test run) : 1496DD52
CRC32 hash : 1496DD52
CRC32 hash (skip zero) : 75957A64
AccurateRip v1 signature : DF02F083
AccurateRip v2 signature : D4DF4C42
->Track not present in AccurateRip database.
Statistics
Read error : 0
Jitter error (maybe fixed) : 0
Retry sector count : 0
Damaged sector count : 0
Track 11
Filename : /Rip/Various Artists - 1999 - The Lowdown 3 - Mixed By B.L.I.M. [MP3]/11 Technical Switch.mp3
/Rip/Various Artists - 1999 - The Lowdown 3 - Mixed By B.L.I.M. [FLAC]/11 Technical Switch.flac
Track gain : -4.36 dB
Peak : 0.891266
CRC32 hash (test run) : EFF20359
CRC32 hash : EFF20359
CRC32 hash (skip zero) : 5EECF952
AccurateRip v1 signature : 654CBC05
AccurateRip v2 signature : 9C94F83F
->Track not present in AccurateRip database.
Statistics
Read error : 0
Jitter error (maybe fixed) : 0
Retry sector count : 0
Damaged sector count : 0
Track 12
Filename : /Rip/Various Artists - 1999 - The Lowdown 3 - Mixed By B.L.I.M. [MP3]/12 Definition.mp3
/Rip/Various Artists - 1999 - The Lowdown 3 - Mixed By B.L.I.M. [FLAC]/12 Definition.flac
Track gain : -3.04 dB
Peak : 0.891266
CRC32 hash (test run) : 97AE19FB
CRC32 hash : 97AE19FB
CRC32 hash (skip zero) : 7B982DD8
AccurateRip v1 signature : 293C5E97
AccurateRip v2 signature : ECE9F0B0
->Track not present in AccurateRip database.
Statistics
Read error : 0
Jitter error (maybe fixed) : 0
Retry sector count : 0
Damaged sector count : 0
Track 13
Filename : /Rip/Various Artists - 1999 - The Lowdown 3 - Mixed By B.L.I.M. [MP3]/13 Man Of Steal.mp3
/Rip/Various Artists - 1999 - The Lowdown 3 - Mixed By B.L.I.M. [FLAC]/13 Man Of Steal.flac
Track gain : 0.32 dB
Peak : 0.839661
CRC32 hash (test run) : 953E1C2F
CRC32 hash : 953E1C2F
CRC32 hash (skip zero) : 320C827A
AccurateRip v1 signature : 2C19DC2F
AccurateRip v2 signature : B64EA3AB
->Track not present in AccurateRip database.
Statistics
Read error : 0
Jitter error (maybe fixed) : 0
Retry sector count : 0
Damaged sector count : 0
Track 14
Filename : /Rip/Various Artists - 1999 - The Lowdown 3 - Mixed By B.L.I.M. [MP3]/14 Son Of Silence.mp3
/Rip/Various Artists - 1999 - The Lowdown 3 - Mixed By B.L.I.M. [FLAC]/14 Son Of Silence.flac
Track gain : 4.02 dB
Peak : 0.649536
CRC32 hash (test run) : B352FBC3
CRC32 hash : B352FBC3
CRC32 hash (skip zero) : F615AE65
AccurateRip v1 signature : 124C9CC4
AccurateRip v2 signature : 89D1F7FE
->Track not present in AccurateRip database.
Statistics
Read error : 0
Jitter error (maybe fixed) : 0
Retry sector count : 0
Damaged sector count : 0
Track 15
Filename : /Rip/Various Artists - 1999 - The Lowdown 3 - Mixed By B.L.I.M. [MP3]/15 New Realm.mp3
/Rip/Various Artists - 1999 - The Lowdown 3 - Mixed By B.L.I.M. [FLAC]/15 New Realm.flac
Track gain : 1.30 dB
Peak : 0.785767
CRC32 hash (test run) : 370F9A45
CRC32 hash : 370F9A45
CRC32 hash (skip zero) : 4B4ECE2C
AccurateRip v1 signature : FAB6B7F2
AccurateRip v2 signature : D5E127C6
->Track not present in AccurateRip database.
Statistics
Read error : 0
Jitter error (maybe fixed) : 0
Retry sector count : 0
Damaged sector count : 0
Track 16
Filename : /Rip/Various Artists - 1999 - The Lowdown 3 - Mixed By B.L.I.M. [MP3]/16 Code 202.mp3
/Rip/Various Artists - 1999 - The Lowdown 3 - Mixed By B.L.I.M. [FLAC]/16 Code 202.flac
Track gain : 0.93 dB
Peak : 0.766785
CRC32 hash (test run) : 6F4BF6F1
CRC32 hash : 6F4BF6F1
CRC32 hash (skip zero) : 820FBF59
AccurateRip v1 signature : 2FEBB042
AccurateRip v2 signature : 46234ED1
->Track not present in AccurateRip database.
Statistics
Read error : 0
Jitter error (maybe fixed) : 0
Retry sector count : 0
Damaged sector count : 0
Track 17
Filename : /Rip/Various Artists - 1999 - The Lowdown 3 - Mixed By B.L.I.M. [MP3]/17 Shabeen.mp3
/Rip/Various Artists - 1999 - The Lowdown 3 - Mixed By B.L.I.M. [FLAC]/17 Shabeen.flac
Track gain : 1.15 dB
Peak : 0.891266
CRC32 hash (test run) : 52A05B89
CRC32 hash : 52A05B89
CRC32 hash (skip zero) : 006253F0
AccurateRip v1 signature : 00F18FF5
AccurateRip v2 signature : ED87E3D3
->Track not present in AccurateRip database.
Statistics
Read error : 0
Jitter error (maybe fixed) : 0
Retry sector count : 0
Damaged sector count : 0
Track 18
Filename : /Rip/Various Artists - 1999 - The Lowdown 3 - Mixed By B.L.I.M. [MP3]/18 Moth (2nd Filament).mp3
/Rip/Various Artists - 1999 - The Lowdown 3 - Mixed By B.L.I.M. [FLAC]/18 Moth (2nd Filament).flac
Track gain : 4.77 dB
Peak : 0.763977
CRC32 hash (test run) : C5457B91
CRC32 hash : C5457B91
CRC32 hash (skip zero) : 52F739D6
AccurateRip v1 signature : 049E8C8A
AccurateRip v2 signature : 0029E4F5
->Track not present in AccurateRip database.
Statistics
Read error : 0
Jitter error (maybe fixed) : 0
Retry sector count : 0
Damaged sector count : 0
Track 19
Filename : /Rip/Various Artists - 1999 - The Lowdown 3 - Mixed By B.L.I.M. [MP3]/19 Walk Tall.mp3
/Rip/Various Artists - 1999 - The Lowdown 3 - Mixed By B.L.I.M. [FLAC]/19 Walk Tall.flac
Track gain : 5.04 dB
Peak : 0.541718
CRC32 hash (test run) : CEC7AA8B
CRC32 hash : CEC7AA8B
CRC32 hash (skip zero) : 328085FE
AccurateRip v1 signature : 9D31E972
AccurateRip v2 signature : E2B0A684
->Track not present in AccurateRip database.
Statistics
Read error : 0
Jitter error (maybe fixed) : 0
Retry sector count : 0
Damaged sector count : 0
Track 20
Filename : /Rip/Various Artists - 1999 - The Lowdown 3 - Mixed By B.L.I.M. [MP3]/20 Killer (B.L.I.M Remix).mp3
/Rip/Various Artists - 1999 - The Lowdown 3 - Mixed By B.L.I.M. [FLAC]/20 Killer (B.L.I.M Remix).flac
Track gain : 2.29 dB
Peak : 0.646210
CRC32 hash (test run) : 521449AE
CRC32 hash : 521449AE
CRC32 hash (skip zero) : E650D044
AccurateRip v1 signature : 0D7A732A
AccurateRip v2 signature : BAB62BD4
->Track not present in AccurateRip database.
Statistics
Read error : 0
Jitter error (maybe fixed) : 0
Retry sector count : 0
Damaged sector count : 0
No errors occurred
End of status report
Содержание индексной карты (.CUE)
TITLE "The Lowdown 3 - Mixed By B.L.I.M."
PERFORMER "Various Artists"
REM GENRE "Mix"
REM DATE "1999"
REM DISCID 1B0E6514
REM REPLAYGAIN_ALBUM_GAIN -2.10 dB
REM REPLAYGAIN_ALBUM_PEAK 0.891266
REM COMPILATION TRUE
FILE "01 Invasion.flac" WAVE
TRACK 01 AUDIO
TITLE "Invasion"
PERFORMER "DJ Teebee"
SONGWRITER "B.L.I.M."
REM COMMENT "Knowledge Magazine – KN 2.08 LWDN 03 "
REM REPLAYGAIN_TRACK_GAIN -1.05 dB
REM REPLAYGAIN_TRACK_PEAK 0.891266
INDEX 01 00:00:00
FILE "02 Visual.flac" WAVE
TRACK 02 AUDIO
TITLE "Visual"
PERFORMER "Acetate"
SONGWRITER "B.L.I.M."
REM COMMENT "Knowledge Magazine – KN 2.08 LWDN 03 "
REM REPLAYGAIN_TRACK_GAIN -1.24 dB
REM REPLAYGAIN_TRACK_PEAK 0.891235
INDEX 01 00:00:00
FILE "03 Time Out In Toronto.flac" WAVE
TRACK 03 AUDIO
TITLE "Time Out In Toronto"
PERFORMER "DJ SS"
SONGWRITER "B.L.I.M."
REM COMMENT "Knowledge Magazine – KN 2.08 LWDN 03 "
REM REPLAYGAIN_TRACK_GAIN -3.16 dB
REM REPLAYGAIN_TRACK_PEAK 0.891266
INDEX 01 00:00:00
FILE "04 Critical Mass.flac" WAVE
TRACK 04 AUDIO
TITLE "Critical Mass"
PERFORMER "Kinnethx"
SONGWRITER "B.L.I.M."
REM COMMENT "Knowledge Magazine – KN 2.08 LWDN 03 "
REM REPLAYGAIN_TRACK_GAIN -2.39 dB
REM REPLAYGAIN_TRACK_PEAK 0.891266
INDEX 01 00:00:00
FILE "05 Slide Away.flac" WAVE
TRACK 05 AUDIO
TITLE "Slide Away"
PERFORMER "DJ Die"
SONGWRITER "B.L.I.M."
REM COMMENT "Knowledge Magazine – KN 2.08 LWDN 03 "
REM REPLAYGAIN_TRACK_GAIN -1.42 dB
REM REPLAYGAIN_TRACK_PEAK 0.891266
INDEX 01 00:00:00
FILE "06 Velocity.flac" WAVE
TRACK 06 AUDIO
TITLE "Velocity"
PERFORMER "IQ Collective"
SONGWRITER "B.L.I.M."
REM COMMENT "Knowledge Magazine – KN 2.08 LWDN 03 "
REM REPLAYGAIN_TRACK_GAIN -4.61 dB
REM REPLAYGAIN_TRACK_PEAK 0.891266
INDEX 01 00:00:00
FILE "07 Ninja Bass.flac" WAVE
TRACK 07 AUDIO
TITLE "Ninja Bass"
PERFORMER "Babylonian"
SONGWRITER "B.L.I.M."
REM COMMENT "Knowledge Magazine – KN 2.08 LWDN 03 "
REM REPLAYGAIN_TRACK_GAIN -2.86 dB
REM REPLAYGAIN_TRACK_PEAK 0.891235
INDEX 01 00:00:00
FILE "08 Contact.flac" WAVE
TRACK 08 AUDIO
TITLE "Contact"
PERFORMER "Edge Of Motion"
SONGWRITER "B.L.I.M."
REM COMMENT "Knowledge Magazine – KN 2.08 LWDN 03 "
REM REPLAYGAIN_TRACK_GAIN -2.02 dB
REM REPLAYGAIN_TRACK_PEAK 0.875854
INDEX 01 00:00:00
FILE "09 Morrian.flac" WAVE
TRACK 09 AUDIO
TITLE "Morrian"
PERFORMER "B.L.I.M. Vs Clinical"
SONGWRITER "B.L.I.M."
REM COMMENT "Knowledge Magazine – KN 2.08 LWDN 03 "
REM REPLAYGAIN_TRACK_GAIN -2.70 dB
REM REPLAYGAIN_TRACK_PEAK 0.891266
INDEX 01 00:00:00
FILE "10 Prophecy.flac" WAVE
TRACK 10 AUDIO
TITLE "Prophecy"
PERFORMER "Served Chilled"
SONGWRITER "B.L.I.M."
REM COMMENT "Knowledge Magazine – KN 2.08 LWDN 03 "
REM REPLAYGAIN_TRACK_GAIN -3.38 dB
REM REPLAYGAIN_TRACK_PEAK 0.891266
INDEX 01 00:00:00
FILE "11 Technical Switch.flac" WAVE
TRACK 11 AUDIO
TITLE "Technical Switch"
PERFORMER "Perfect Combination"
SONGWRITER "B.L.I.M."
REM COMMENT "Knowledge Magazine – KN 2.08 LWDN 03 "
REM REPLAYGAIN_TRACK_GAIN -4.36 dB
REM REPLAYGAIN_TRACK_PEAK 0.891266
INDEX 01 00:00:00
FILE "12 Definition.flac" WAVE
TRACK 12 AUDIO
TITLE "Definition"
PERFORMER "Danny Breaks"
SONGWRITER "B.L.I.M."
REM COMMENT "Knowledge Magazine – KN 2.08 LWDN 03 "
REM REPLAYGAIN_TRACK_GAIN -3.04 dB
REM REPLAYGAIN_TRACK_PEAK 0.891266
INDEX 01 00:00:00
FILE "13 Man Of Steal.flac" WAVE
TRACK 13 AUDIO
TITLE "Man Of Steal"
PERFORMER "Vinyl Syndicate"
SONGWRITER "B.L.I.M."
REM COMMENT "Knowledge Magazine – KN 2.08 LWDN 03 "
REM REPLAYGAIN_TRACK_GAIN 0.32 dB
REM REPLAYGAIN_TRACK_PEAK 0.839661
INDEX 01 00:00:00
FILE "14 Son Of Silence.flac" WAVE
TRACK 14 AUDIO
TITLE "Son Of Silence"
PERFORMER "Black Science Labs"
SONGWRITER "B.L.I.M."
REM COMMENT "Knowledge Magazine – KN 2.08 LWDN 03 "
REM REPLAYGAIN_TRACK_GAIN 4.02 dB
REM REPLAYGAIN_TRACK_PEAK 0.649536
INDEX 01 00:00:00
FILE "15 New Realm.flac" WAVE
TRACK 15 AUDIO
TITLE "New Realm"
PERFORMER "Biostacis"
SONGWRITER "B.L.I.M."
REM COMMENT "Knowledge Magazine – KN 2.08 LWDN 03 "
REM REPLAYGAIN_TRACK_GAIN 1.30 dB
REM REPLAYGAIN_TRACK_PEAK 0.785767
INDEX 01 00:00:00
FILE "16 Code 202.flac" WAVE
TRACK 16 AUDIO
TITLE "Code 202"
PERFORMER "Cybernet"
SONGWRITER "B.L.I.M."
REM COMMENT "Knowledge Magazine – KN 2.08 LWDN 03 "
REM REPLAYGAIN_TRACK_GAIN 0.93 dB
REM REPLAYGAIN_TRACK_PEAK 0.766785
INDEX 01 00:00:00
FILE "17 Shabeen.flac" WAVE
TRACK 17 AUDIO
TITLE "Shabeen"
PERFORMER "Click 'n Cycle"
SONGWRITER "B.L.I.M."
REM COMMENT "Knowledge Magazine – KN 2.08 LWDN 03 "
REM REPLAYGAIN_TRACK_GAIN 1.15 dB
REM REPLAYGAIN_TRACK_PEAK 0.891266
INDEX 01 00:00:00
FILE "18 Moth (2nd Filament).flac" WAVE
TRACK 18 AUDIO
TITLE "Moth (2nd Filament)"
PERFORMER "Icaaus"
SONGWRITER "B.L.I.M."
REM COMMENT "Knowledge Magazine – KN 2.08 LWDN 03 "
REM REPLAYGAIN_TRACK_GAIN 4.77 dB
REM REPLAYGAIN_TRACK_PEAK 0.763977
INDEX 01 00:00:00
FILE "19 Walk Tall.flac" WAVE
TRACK 19 AUDIO
TITLE "Walk Tall"
PERFORMER "Danny Byrd"
SONGWRITER "B.L.I.M."
REM COMMENT "Knowledge Magazine – KN 2.08 LWDN 03 "
REM REPLAYGAIN_TRACK_GAIN 5.04 dB
REM REPLAYGAIN_TRACK_PEAK 0.541718
INDEX 01 00:00:00
FILE "20 Killer (B.L.I.M Remix).flac" WAVE
TRACK 20 AUDIO
TITLE "Killer (B.L.I.M Remix)"
PERFORMER "One True Parker"
SONGWRITER "B.L.I.M."
REM COMMENT "Knowledge Magazine – KN 2.08 LWDN 03 "
REM REPLAYGAIN_TRACK_GAIN 2.29 dB
REM REPLAYGAIN_TRACK_PEAK 0.646210
INDEX 01 00:00:00
Лог проверки качества
AUDIOCHECKER v2.0 beta (build 457) - by Dester - opdester@freemail.hu
~~~~~~~~~~~~~~~~~~~~~~~~~~~~~~~~~~
-=== DO NOT EDIT THIS FILE! ===-
Path: ...\VA - The Lowdown 3 - Mixed By B.L.I.M. (Knowledge Magazine [KN 2.08 LWDN 03]) CD - 1999 [FLAC]
01 -=- 01 Invasion.flac -=- CDDA (100%)
02 -=- 02 Visual.flac -=- CDDA (100%)
03 -=- 03 Time Out In Toronto.flac -=- CDDA (100%)
04 -=- 04 Critical Mass.flac -=- CDDA (100%)
05 -=- 05 Slide Away.flac -=- CDDA (100%)
06 -=- 06 Velocity.flac -=- CDDA (100%)
07 -=- 07 Ninja Bass.flac -=- CDDA (100%)
08 -=- 08 Contact.flac -=- CDDA (100%)
09 -=- 09 Morrian.flac -=- CDDA (100%)
10 -=- 10 Prophecy.flac -=- CDDA (100%)
11 -=- 11 Technical Switch.flac -=- CDDA (100%)
12 -=- 12 Definition.flac -=- CDDA (100%)
13 -=- 13 Man Of Steal.flac -=- CDDA (99%)
14 -=- 14 Son Of Silence.flac -=- CDDA (100%)
15 -=- 15 New Realm.flac -=- CDDA (100%)
16 -=- 16 Code 202.flac -=- CDDA (100%)
17 -=- 17 Shabeen.flac -=- CDDA (100%)
18 -=- 18 Moth (2nd Filament).flac -=- CDDA (100%)
19 -=- 19 Walk Tall.flac -=- CDDA (100%)
20 -=- 20 Killer (B.L.I.M Remix).flac -=- CDDA (100%)
Summary 99,95% CDDA
188020436
[Профиль] [ЛС]
Показать сообщения:    
Ответить на тему

Текущее время: 28-Сен 19:13

Часовой пояс: UTC + 3



Вы не можете начинать темы
Вы не можете отвечать на сообщения
Вы не можете редактировать свои сообщения
Вы не можете удалять свои сообщения
Вы не можете голосовать в опросах
Вы не можете прикреплять файлы к сообщениям
Вы не можете скачивать файлы