Михаил Задорнов. Все будет чики-пуки (2013.01.01) [2013 г., Юмор, SATRip]

Ответить на тему
 
Автор Сообщение

egres ®

Стаж: 7 лет

Сообщений: 307

Создавать темы 02-Янв-2013 17:11

[Цитировать]

-Михаил Задорнов. Все будет чики-пуки-- Производство: Россия
Жанр: Юмор
Год выпуска: 2013 г.
Продолжительность: 01:35:29

Российская премьера: 01 января 2013
Перевод: Не требуется
Режиссер: Телекомпания
: -В ролях: Михаил Задорнов-Описание: В новогоднем концерте «Все будет чики-пуки!!!» Михаил Задорнов анализирует все возрастающее влияние Интернета на молодежь, размышляет о спортивных баталиях ушедшего года, о политике и политиках, шоу-бизнесе и телевидении, о парадоксах образования.-Качество видео: SATRip
Формат видео: AVI
Видео кодек: XviD
Аудио кодек: MP3
Видео: 640x480 (1.33:1), 25 fps, XviD build 50 ~1494 kbps avg, 0.19 bit/pixel
Аудио: 48 kHz, MPEG Layer 3, 2 ch, ~128.00 kbps avg

Cубтитры: отсутствуют
Media Info
Общее
Полное имя : D:\Архив\ФИЛЬМЫ\Михаил Задорнов. Все будет чики-пуки (2013.01.01).avi
Формат : AVI
Формат/Информация : Audio Video Interleave
Размер файла : 1,09 Гбайт
Продолжительность : 1 ч. 35 м.
Общий поток : 1632 Кбит/сек
Программа кодирования : VirtualDubMod 1.5.10.2 (build 2542/release)
Библиотека кодирования : VirtualDubMod build 2542/release
Видео
Идентификатор : 0
Формат : MPEG-4 Visual
Профиль формата : Advanced Simple@L5
Параметр BVOP формата : 2
Параметр QPel формата : Нет
Параметр GMC формата : Без точки перехода
Параметр матрицы формата : Default (MPEG)
Идентификатор кодека : XVID
Идентификатор кодека/Подсказка : XviD
Продолжительность : 1 ч. 35 м.
Битрейт : 1494 Кбит/сек
Ширина : 640 пикселей
Высота : 480 пикселей
Соотношение сторон : 4:3
Частота кадров : 25,000 кадров/сек
Цветовое пространство : YUV
Субдискретизация насыщенности : 4:2:0
Битовая глубина : 8 бит
Тип развёртки : Прогрессивная
Метод сжатия : С потерями
Бит/(Пиксели*Кадры) : 0.195
Размер потока : 1021 Мбайт (92%)
Библиотека кодирования : XviD 1.2.1 (UTC 2008-12-04)
Аудио
Идентификатор : 1
Формат : MPEG Audio
Версия формата : Version 1
Профиль формата : Layer 3
Режим : Joint stereo
Расширение режима : MS Stereo
Идентификатор кодека : 55
Идентификатор кодека/Подсказка : MP3
Продолжительность : 1 ч. 35 м.
Вид битрейта : Постоянный
Битрейт : 128 Кбит/сек
Каналы : 2 канала
Частота : 48,0 КГц
Метод сжатия : С потерями
Задержка видео : 8 мс.
Размер потока : 87,4 Мбайт (8%)
Выравнивание : Разделение по промежуткам
Продолжительность промежутка : 40 мс. (1,00 видеокадр)
Время предзагрузки промежутка : 500 мс.
Скриншот c названием фильма
--
[Профиль] [ЛС]
Показать сообщения:    
Ответить на тему

Текущее время: 15-Окт 13:55

Часовой пояс: UTC + 4



Вы не можете начинать темы
Вы не можете отвечать на сообщения
Вы не можете редактировать свои сообщения
Вы не можете удалять свои сообщения
Вы не можете голосовать в опросах
Вы не можете прикреплять файлы к сообщениям
Вы не можете скачивать файлы