Ария - В Желтом Круге Арены [2012 г., Heavy Metal, DVDRip]

Ответить на тему
 
Автор Сообщение

sergej644 ®

Стаж: 7 лет 6 месяцев

Сообщений: 970

Создавать темы 29-Ноя-2012 14:46

[Цитировать]

-Ария - В Желтом Круге Арены-

Год выпуска: 2012
Страна: Россия
Жанр: Heavy Metal
Продолжительность: 01:57:27



Описание: Радостная новость для всех «арийцев» в День рождения группы - в конце ноября 2012 года свет увидит новый концертный релиз группы АРИЯ "В желтом круге арены".
Новинка будет состоять из DVD-диска и двойной CD-версии. В основу релиза лег концерт Арии, состоявшийся в Москве 14 апреля 2012 года в клубе Arena Moscow.
Всего на диск войдут 18 композиций, среди которых будут как старые, проверенные временем треки, так и песни с последнего студийного альбома Арии "Феникс".
-
треклист
1. Черный квадрат
2. Бой без правил
3. Ночь короче дня
4. Феникс
5. Дальний свет
6. Обман
7. Черная легенда
8. История одного убийцы
9. Колизей
10.Кровь за кровь
11.Аттила
12.Последний закат
13.Осколок льда
14.Штиль
15.Небо тебя найдет
16.Герой асфальта
17.Улица роз
18.Дай жару!


Качество: DVDRip
Контейнер: AVI
Видео кодек: DivX
Аудио кодек: MP3
Видео: DivX 5 704x384 (1.85:1) 25fps 1 597 Kbps
Аудио: MP3 48000Hz stereo 320kbps

MediaInfo
General
Complete name                  : D:\Che-MD\Ария - 2012 - В Желтом Круге Арены.avi
Format                         : AVI
Format/Info                    : Audio Video Interleave
File size                      : 1.58 GiB
Duration                       : 1h 57mn
Overall bit rate               : 1 926 Kbps
Writing application            : VirtualDubMod 1.5.10.2 (build 2540/release)
Writing library                : VirtualDubMod build 2540/release
Video
ID                             : 0
Format                         : MPEG-4 Visual
Format settings, BVOP          : Yes
Format settings, QPel          : No
Format settings, GMC           : No warppoints
Format settings, Matrix        : Default (H.263)
Codec ID                       : DX50
Codec ID/Hint                  : DivX 5
Duration                       : 1h 57mn
Bit rate                       : 1 597 Kbps
Width                          : 704 pixels
Height                         : 384 pixels
Display aspect ratio           : 1.85:1
Frame rate                     : 25.000 fps
Color space                    : YUV
Chroma subsampling             : 4:2:0
Bit depth                      : 8 bits
Scan type                      : Progressive
Compression mode               : Lossy
Bits/(Pixel*Frame)             : 0.236
Stream size                    : 1.31 GiB (83%)
Writing library                : DivX 6.8.5 (UTC 2009-08-20)
Audio
ID                             : 1
Format                         : MPEG Audio
Format version                 : Version 1
Format profile                 : Layer 3
Mode                           : Joint stereo
Codec ID                       : 55
Codec ID/Hint                  : MP3
Duration                       : 1h 56mn
Bit rate mode                  : Constant
Bit rate                       : 320 Kbps
Channel(s)                     : 2 channels
Sampling rate                  : 48.0 KHz
Compression mode               : Lossy
Stream size                    : 268 MiB (17%)
Alignment                      : Aligned on interleaves
Interleave, duration           : 40 ms (1.00 video frame)
Interleave, preload duration   : 504 ms
Writing library                : LAME3.90.
Encoding settings              : -m j -V 4 -q 2 -lowpass 21
Скриншоты
-- --
[Профиль] [ЛС]

4erepOk

Стаж: 7 лет 2 месяца

Сообщений: 10

Откуда: Переславль-Залесский

Создавать темы 24-Дек-2012 23:58 (спустя 25 дней)

[Цитировать]

Классный концерт, советую посмотреть поклонникам Арии.
[Профиль] [ЛС]
Показать сообщения:    
Ответить на тему

Текущее время: 25-Фев 16:16

Часовой пояс: UTC + 4



Вы не можете начинать темы
Вы не можете отвечать на сообщения
Вы не можете редактировать свои сообщения
Вы не можете удалять свои сообщения
Вы не можете голосовать в опросах
Вы не можете прикреплять файлы к сообщениям
Вы не можете скачивать файлы