(Instrumental) VA - Instrumental Gold Collection - World's Best Hits, Volume 4 (2CD) - 2001, APE (image + .cue), lossless

Ответить на тему
 
Автор Сообщение

sergej644 ®

Стаж: 7 лет 2 месяца

Сообщений: 983

Создавать темы 04-Дек-2012 16:15

[Цитировать]

-VA - Gold Instrumental Collection Vol.4 (2CD)-
Страна: All World
Жанр: Instrumental
Год выпуска: 2001
Формат: APE (image + .cue)
Битрейт аудио: lossless
Продолжительность: 02:37:01
-Трэклист:-
CD 1
продолжительность: 01:19:31
01.Fausto Papetti - Strangers In The Night (02:37)
02.Ricky King - Lotos Blume (03:06)
03.Nicholas Gunn - Earth Story (03:49)
04.Frank Duval - Me To You (03:07)
05.Ocarina - Lonely Singer (03:20)
06.Saint-Preux - Entre Le Reve Et L'Oubli (03:06)
07.James Last - Paradiso (03:08)
08.Space - Balad For Space Lovers (02:16)
09.Richard Clauderman - Do You Know (03:30)
10.Santana - Luz Amor Y Vida (05:04)
11.Keiko Matsui - Flowers Of The Sea (03:35)
12.Paul Mauriat - Brazilia Carnaval (02:42)
13.Cusco - Saturn (03:35)
14.Hugo Strasser - Pariser Tango (02:10)
15.The Shadows - The Lute Number (01:53)
16.Jean-Michel Jarre - Oxygene Part II (03:11)
17.Eddy Calvert - Lonelyness (03:29)
18.Francisco Garcia - Woman In Love (03:45)
19.Karunesh - Sweet Dreams (04:53)
20.Rainbow - Snowman (04:32)
21.Kenny G - My Heart Will Go On (04:21)
22.The Ventures - Trambone (02:01)
23.Paul Mauriat - Mamy Blue (02:48)
24.Mark Snow - The X-Files (main title) (03:22)
Лог создания рипа
Exact Audio Copy V0.99 prebeta 5 from 4. May 2009
Отчёт EAC об извлечении, выполненном 22. августа 2009, 21:31
Various / Gold Instrumental Collection Vol.4-CD1
Дисковод: PIONEER DVD-RW  DVR-216D   Adapter: 0  ID: 0
Режим чтения                 : Достоверность
Использование точного потока : Да
Отключение кэша аудио        : Да
Использование указателей C2  : Нет
Коррекция смещения при чтении                     : 96
Способность читать области Lead-in и Lead-out     : Нет
Заполнение пропущенных сэмплов тишиной            : Да
Удаление блоков с тишиной в начале и конце        : Нет
При вычислениях CRC использовались нулевые сэмплы : Да
Интерфейс                                         : Установленный внешний ASPI-интерфейс
Выходной формат : Внутренние WAV-операции
Формат сэмплов  : 44.100 Гц; 16 бит; стерео
TOC извлечённого CD
     Трек |   Старт  | Длительность | Начальный сектор | Конечный сектор
    ---------------------------------------------------------------------
       1  |  0:00.00 |    2:37.31   |           0      |      11805
       2  |  2:37.31 |    3:06.53   |       11806      |      25808
       3  |  5:44.09 |    3:49.25   |       25809      |      43008
       4  |  9:33.34 |    3:07.67   |       43009      |      57100
       5  | 12:41.26 |    3:20.20   |       57101      |      72120
       6  | 16:01.46 |    3:06.73   |       72121      |      86143
       7  | 19:08.44 |    3:08.28   |       86144      |     100271
       8  | 22:16.72 |    2:16.23   |      100272      |     110494
       9  | 24:33.20 |    3:30.60   |      110495      |     126304
      10  | 28:04.05 |    5:04.03   |      126305      |     149107
      11  | 33:08.08 |    3:35.30   |      149108      |     165262
      12  | 36:43.38 |    2:42.33   |      165263      |     177445
      13  | 39:25.71 |    3:35.19   |      177446      |     193589
      14  | 43:01.15 |    2:10.63   |      193590      |     203402
      15  | 45:12.03 |    1:53.53   |      203403      |     211930
      16  | 47:05.56 |    3:11.50   |      211931      |     226305
      17  | 50:17.31 |    3:29.12   |      226306      |     241992
      18  | 53:46.43 |    3:45.51   |      241993      |     258918
      19  | 57:32.19 |    4:53.65   |      258919      |     280958
      20  | 62:26.09 |    4:32.73   |      280959      |     301431
      21  | 66:59.07 |    4:21.04   |      301432      |     321010
      22  | 71:20.11 |    2:01.22   |      321011      |     330107
      23  | 73:21.33 |    2:48.36   |      330108      |     342743
      24  | 76:09.69 |    3:22.05   |      342744      |     357898
Характеристики диапазона извлечения и сообщения об ошибках
Выбранный диапазон
     Имя файла D:\DVD\Раздачи торрентов\Instrumental Gold Collection - World's Best Hits\Том 4\CD 1\Various - Gold Instrumental Collection Vol.4-CD1.wav
     Пиковый уровень 100.0 %
     Качество диапазона 100.0 %
     CRC копии 9065FAF5
     Копирование... OK
Ошибок не произошло
Конец отчёта
Содержание индексной карты *cue
REM GENRE Instrumental
REM DATE 1995
REM DISCID 6412A318
REM COMMENT "ExactAudioCopy v0.99pb5"
PERFORMER "Various"
TITLE "Gold Instrumental Collection Vol.4-CD1"
FILE "Various - Gold Instrumental Collection Vol.4-CD1.ape" WAVE
  TRACK 01 AUDIO
    TITLE "Strangers In The Night"
    PERFORMER "Fausto Papetti"
    INDEX 01 00:00:00
  TRACK 02 AUDIO
    TITLE "Lotos Blume"
    PERFORMER "Ricky King"
    INDEX 01 02:37:31
  TRACK 03 AUDIO
    TITLE "Earth Story"
    PERFORMER "Nicholas Gunn"
    INDEX 01 05:44:09
  TRACK 04 AUDIO
    TITLE "Me To You"
    PERFORMER "Frank Duval"
    INDEX 01 09:33:34
  TRACK 05 AUDIO
    TITLE "Lonely Singer"
    PERFORMER "Ocarina"
    INDEX 01 12:41:26
  TRACK 06 AUDIO
    TITLE "Entre Le Reve Et L'Oubli"
    PERFORMER "Saint-Preux"
    INDEX 01 16:01:46
  TRACK 07 AUDIO
    TITLE "Paradiso"
    PERFORMER "James Last"
    INDEX 01 19:08:44
  TRACK 08 AUDIO
    TITLE "Balad For Space Lovers"
    PERFORMER "Space"
    INDEX 01 22:16:72
  TRACK 09 AUDIO
    TITLE "Do You Know"
    PERFORMER "Richard Clauderman"
    INDEX 01 24:33:20
  TRACK 10 AUDIO
    TITLE "Luz Amor Y Vida"
    PERFORMER "Santana"
    INDEX 01 28:04:05
  TRACK 11 AUDIO
    TITLE "Flowers Of The Sea"
    PERFORMER "Keiko Matsui"
    INDEX 01 33:08:08
  TRACK 12 AUDIO
    TITLE "Brazilia Carnaval"
    PERFORMER "Paul Mauriat"
    INDEX 01 36:43:38
  TRACK 13 AUDIO
    TITLE "Saturn"
    PERFORMER "Cusco"
    INDEX 01 39:25:71
  TRACK 14 AUDIO
    TITLE "Pariser Tango"
    PERFORMER "Hugo Strasser"
    INDEX 01 43:01:15
  TRACK 15 AUDIO
    TITLE "The Lute Number"
    PERFORMER "The Shadows"
    INDEX 01 45:12:03
  TRACK 16 AUDIO
    TITLE "Oxygene Part II"
    PERFORMER "Jean-Michel Jarre"
    INDEX 01 47:05:56
  TRACK 17 AUDIO
    TITLE "Lonelyness"
    PERFORMER "Eddy Calvert"
    INDEX 01 50:17:31
  TRACK 18 AUDIO
    TITLE "Woman In Love"
    PERFORMER "Francisco Garcia"
    INDEX 01 53:46:43
  TRACK 19 AUDIO
    TITLE "Sweet Dreams"
    PERFORMER "Karunesh"
    INDEX 01 57:32:19
  TRACK 20 AUDIO
    TITLE "Snowman"
    PERFORMER "Rainbow"
    INDEX 01 62:26:09
  TRACK 21 AUDIO
    TITLE "My Heart Will Go On"
    PERFORMER "Kenny G"
    INDEX 01 66:59:07
  TRACK 22 AUDIO
    TITLE "Trambone"
    PERFORMER "The Ventures"
    INDEX 01 71:20:11
  TRACK 23 AUDIO
    TITLE "Mamy Blue"
    PERFORMER "Paul Mauriat"
    INDEX 01 73:21:33
  TRACK 24 AUDIO
    TITLE "The X-Files (main title)"
    PERFORMER "Mark Snow"
    INDEX 01 76:09:69
CD 2
продолжительность: 01:17:30
01.Helmut Zacharias - La Vie En Rose - Helmut Zacharias - La Vie En Rose (01:59)
02.Paul Mauriat - Penelope - Paul Mauriat - Penelope (04:10)
03.Francis Goya - Try a Little Tenderness - Francis Goya - Try a Little Tenderness (03:38)
04.George Saxon - Only You - George Saxon - Only You (02:24)
05.Azil Y Negro - Isadora - Azil Y Negro - Isadora (04:01)
06.Ricky King -Brazilia - Ricky King -Brazilia (02:54)
07.Damian Luca - Unchained Melody - Damian Luca - Unchained Melody (03:41)
08.The Shadows - Riders In The Sky - The Shadows - Riders In The Sky (03:20)
09.Pedro Alvarez - Ole Guapa - Pedro Alvarez - Ole Guapa (03:10)
10.Keiko Matsui - Bonfire In The Piano - Keiko Matsui - Bonfire In The Piano (04:31)
11.Ocarina - Bag Pipe Reggae - Ocarina - Bag Pipe Reggae (03:33)
12.Space - Blue Tears - Space - Blue Tears (05:35)
13.The Intimate Orchestra - Sadeness (Part 1) - The Intimate Orchestra - Sadeness (Part 1) (04:00)
14.Jean-Michel Jarre - Band In The Train - Jean-Michel Jarre - Band In The Train (01:21)
15.The Ventures - Raindrops Keep Falling On My Head - The Ventures - Raindrops Keep Falling On My Head (03:01)
16.Dancing Fantasy - Midnight Blur - Dancing Fantasy - Midnight Blur (03:58)
17.Dave Brubeck - Sobre Las Olas - Dave Brubeck - Sobre Las Olas (03:09)
18.Jeff Wayne - The Eve Of The War - Jeff Wayne - The Eve Of The War (02:52)
19.Jerry Mulligan - The Shadow Of The Smile - Jerry Mulligan - The Shadow Of The Smile (03:33)
20.Darras & Leroux - Boderline - Darras & Leroux - Boderline (03:05)
21.Nino Rota - Romeo & Juliet - Nino Rota - Romeo & Juliet (02:03)
22.Space - Running In The City - Space - Running In The City (04:12)
23.Jan Holland - The Last Waltz - Jan Holland - The Last Waltz (03:06)
Лог создания рипа
Exact Audio Copy V0.99 prebeta 5 from 4. May 2009
Отчёт EAC об извлечении, выполненном 22. августа 2009, 22:36
Various Artists / Gold Instrumental Collection Vol.4-CD2
Дисковод: PIONEER DVD-RW  DVR-216D   Adapter: 0  ID: 0
Режим чтения                 : Достоверность
Использование точного потока : Да
Отключение кэша аудио        : Да
Использование указателей C2  : Нет
Коррекция смещения при чтении                     : 96
Способность читать области Lead-in и Lead-out     : Нет
Заполнение пропущенных сэмплов тишиной            : Да
Удаление блоков с тишиной в начале и конце        : Нет
При вычислениях CRC использовались нулевые сэмплы : Да
Интерфейс                                         : Установленный внешний ASPI-интерфейс
Выходной формат : Внутренние WAV-операции
Формат сэмплов  : 44.100 Гц; 16 бит; стерео
TOC извлечённого CD
     Трек |   Старт  | Длительность | Начальный сектор | Конечный сектор
    ---------------------------------------------------------------------
       1  |  0:00.00 |    1:59.63   |           0      |       8987
       2  |  1:59.63 |    4:10.66   |        8988      |      27803
       3  |  6:10.54 |    3:38.66   |       27804      |      44219
       4  |  9:49.45 |    2:24.49   |       44220      |      55068
       5  | 12:14.19 |    4:01.02   |       55069      |      73145
       6  | 16:15.21 |    2:54.48   |       73146      |      86243
       7  | 19:09.69 |    3:41.37   |       86244      |     102855
       8  | 22:51.31 |    3:20.37   |      102856      |     117892
       9  | 26:11.68 |    3:10.73   |      117893      |     132215
      10  | 29:22.66 |    4:31.25   |      132216      |     152565
      11  | 33:54.16 |    3:33.40   |      152566      |     168580
      12  | 37:27.56 |    5:35.61   |      168581      |     193766
      13  | 43:03.42 |    4:00.72   |      193767      |     211838
      14  | 47:04.39 |    1:21.49   |      211839      |     217962
      15  | 48:26.13 |    3:01.43   |      217963      |     231580
      16  | 51:27.56 |    3:58.30   |      231581      |     249460
      17  | 55:26.11 |    3:09.04   |      249461      |     263639
      18  | 58:35.15 |    2:52.49   |      263640      |     276588
      19  | 61:27.64 |    3:33.48   |      276589      |     292611
      20  | 65:01.37 |    3:05.30   |      292612      |     306516
      21  | 68:06.67 |    2:03.64   |      306517      |     315805
      22  | 70:10.56 |    4:12.38   |      315806      |     334743
      23  | 74:23.19 |    3:06.63   |      334744      |     348756
Характеристики диапазона извлечения и сообщения об ошибках
Выбранный диапазон
     Имя файла D:\DVD\Раздачи торрентов\Instrumental Gold Collection - World's Best Hits\Том 4\CD 2\Various Artists - Gold Instrumental Collection Vol.4-CD2.wav
     Пиковый уровень 100.0 %
     Качество диапазона 100.0 %
     CRC копии 9A438E2E
     Копирование... OK
Ошибок не произошло
Конец отчёта
Содержание индексной карты *cue
REM GENRE Instrumental
REM DATE 1995
REM DISCID 63122A17
REM COMMENT "ExactAudioCopy v0.99pb5"
PERFORMER "Various Artists"
TITLE "Gold Instrumental Collection Vol.4-CD2"
FILE "Various Artists - Gold Instrumental Collection Vol.4-CD2.ape" WAVE
  TRACK 01 AUDIO
    TITLE "Helmut Zacharias - La Vie En Rose"
    PERFORMER "Helmut Zacharias - La Vie En Rose"
    INDEX 01 00:00:00
  TRACK 02 AUDIO
    TITLE "Paul Mauriat - Penelope"
    PERFORMER "Paul Mauriat - Penelope"
    INDEX 01 01:59:63
  TRACK 03 AUDIO
    TITLE "Francis Goya - Try a Little Tenderness"
    PERFORMER "Francis Goya - Try a Little Tenderness"
    INDEX 01 06:10:54
  TRACK 04 AUDIO
    TITLE "George Saxon - Only You"
    PERFORMER "George Saxon - Only You"
    INDEX 01 09:49:45
  TRACK 05 AUDIO
    TITLE "Azil Y Negro - Isadora"
    PERFORMER "Azil Y Negro - Isadora"
    INDEX 01 12:14:19
  TRACK 06 AUDIO
    TITLE "Ricky King -Brazilia"
    PERFORMER "Ricky King -Brazilia"
    INDEX 01 16:15:21
  TRACK 07 AUDIO
    TITLE "Damian Luca - Unchained Melody"
    PERFORMER "Damian Luca - Unchained Melody"
    INDEX 01 19:09:69
  TRACK 08 AUDIO
    TITLE "The Shadows - Riders In The Sky"
    PERFORMER "The Shadows - Riders In The Sky"
    INDEX 01 22:51:31
  TRACK 09 AUDIO
    TITLE "Pedro Alvarez - Ole Guapa"
    PERFORMER "Pedro Alvarez - Ole Guapa"
    INDEX 01 26:11:68
  TRACK 10 AUDIO
    TITLE "Keiko Matsui - Bonfire In The Piano"
    PERFORMER "Keiko Matsui - Bonfire In The Piano"
    INDEX 01 29:22:66
  TRACK 11 AUDIO
    TITLE "Ocarina - Bag Pipe Reggae"
    PERFORMER "Ocarina - Bag Pipe Reggae"
    INDEX 01 33:54:16
  TRACK 12 AUDIO
    TITLE "Space - Blue Tears"
    PERFORMER "Space - Blue Tears"
    INDEX 01 37:27:56
  TRACK 13 AUDIO
    TITLE "The Intimate Orchestra - Sadeness (Part 1)"
    PERFORMER "The Intimate Orchestra - Sadeness (Part 1)"
    INDEX 01 43:03:42
  TRACK 14 AUDIO
    TITLE "Jean-Michel Jarre - Band In The Train"
    PERFORMER "Jean-Michel Jarre - Band In The Train"
    INDEX 01 47:04:39
  TRACK 15 AUDIO
    TITLE "The Ventures - Raindrops Keep Falling On My Head"
    PERFORMER "The Ventures - Raindrops Keep Falling On My Head"
    INDEX 01 48:26:13
  TRACK 16 AUDIO
    TITLE "Dancing Fantasy - Midnight Blur"
    PERFORMER "Dancing Fantasy - Midnight Blur"
    INDEX 01 51:27:56
  TRACK 17 AUDIO
    TITLE "Dave Brubeck - Sobre Las Olas"
    PERFORMER "Dave Brubeck - Sobre Las Olas"
    INDEX 01 55:26:11
  TRACK 18 AUDIO
    TITLE "Jeff Wayne - The Eve Of The War"
    PERFORMER "Jeff Wayne - The Eve Of The War"
    INDEX 01 58:35:15
  TRACK 19 AUDIO
    TITLE "Jerry Mulligan - The Shadow Of The Smile"
    PERFORMER "Jerry Mulligan - The Shadow Of The Smile"
    INDEX 01 61:27:64
  TRACK 20 AUDIO
    TITLE "Darras & Leroux - Boderline"
    PERFORMER "Darras & Leroux - Boderline"
    INDEX 01 65:01:37
  TRACK 21 AUDIO
    TITLE "Nino Rota - Romeo & Juliet"
    PERFORMER "Nino Rota - Romeo & Juliet"
    INDEX 01 68:06:67
  TRACK 22 AUDIO
    TITLE "Space - Running In The City"
    PERFORMER "Space - Running In The City"
    INDEX 01 70:10:56
  TRACK 23 AUDIO
    TITLE "Jan Holland - The Last Waltz"
    PERFORMER "Jan Holland - The Last Waltz"
    INDEX 01 74:23:19
-- --
[Профиль] [ЛС]
Показать сообщения:    
Ответить на тему

Текущее время: 15-Окт 13:07

Часовой пояс: UTC + 4



Вы не можете начинать темы
Вы не можете отвечать на сообщения
Вы не можете редактировать свои сообщения
Вы не можете удалять свои сообщения
Вы не можете голосовать в опросах
Вы не можете прикреплять файлы к сообщениям
Вы не можете скачивать файлы